<?xml version="1.0" standalone="no"?>
<!DOCTYPE svg PUBLIC "-//W3C//DTD SVG 1.1//EN" "http://www.w3.org/Graphics/SVG/1.1/DTD/svg11.dtd" >
<svg>
<metadata>
Created by FontForge 20090914 at Thu Jul 23 15:59:36 2015
 By www-data
Digitized data copyright &#194;&#169; 2012-2014, The Mozilla Foundation and Telefonica S.A.
</metadata>
<defs>
<font id="FiraSans-UltraLight" horiz-adv-x="560" >
  <font-face 
    font-family="Fira Sans UltraLight"
    font-weight="200"
    font-stretch="normal"
    units-per-em="1000"
    panose-1="2 11 3 3 5 0 0 2 0 4"
    ascent="785"
    descent="-215"
    x-height="520"
    cap-height="682"
    bbox="-167 -350 1360 1050"
    underline-thickness="50"
    underline-position="-50"
    stemh="33"
    stemv="32"
    unicode-range="U+000D-U+1F310"
  />
<missing-glyph horiz-adv-x="666" 
d="M543 -350h-420v1400h420v-1400zM178 998v-1296h311v1296h-311zM324 451c86 0 111 -55 111 -115c0 -70 -28 -108 -95 -118v-45c0 -15 -13 -24 -25 -24c-13 0 -25 9 -25 24v84c72 4 91 24 91 77c0 39 -11 69 -61 69c-21 0 -35 -3 -52 -11c-5 -2 -9 -3 -13 -3
c-15 0 -24 10 -24 23c0 27 54 39 93 39zM315 120c20 0 35 -15 35 -35c0 -21 -15 -37 -35 -37s-35 16 -35 37c0 20 15 35 35 35z" />
    <glyph glyph-name="fi" unicode="fi" horiz-adv-x="555" 
d="M250 739c58 0 107 -17 147 -38l-13 -28c-39 19 -80 35 -133 35c-60 0 -100 -21 -100 -98v-90h290v-520h-34v491h-256v-491h-34v491h-88v29h88v96c0 83 51 123 133 123z" />
    <glyph glyph-name="fl" unicode="fl" horiz-adv-x="578" 
d="M539 1c-14 -6 -32 -11 -51 -11c-49 0 -80 27 -80 90v601c-53 19 -93 27 -146 27c-72 0 -111 -27 -111 -96v-92h145l-5 -29h-140v-491h-34v491h-88v29h88v96c0 78 51 123 142 123c58 0 99 -10 150 -26l33 5v-639c0 -39 14 -58 50 -58c12 0 25 3 37 8z" />
    <glyph glyph-name=".notdef" horiz-adv-x="666" 
d="M543 -350h-420v1400h420v-1400zM178 998v-1296h311v1296h-311zM324 451c86 0 111 -55 111 -115c0 -70 -28 -108 -95 -118v-45c0 -15 -13 -24 -25 -24c-13 0 -25 9 -25 24v84c72 4 91 24 91 77c0 39 -11 69 -61 69c-21 0 -35 -3 -52 -11c-5 -2 -9 -3 -13 -3
c-15 0 -24 10 -24 23c0 27 54 39 93 39zM315 120c20 0 35 -15 35 -35c0 -21 -15 -37 -35 -37s-35 16 -35 37c0 20 15 35 35 35z" />
    <glyph glyph-name="CR" unicode="&#xd;" horiz-adv-x="288" 
 />
    <glyph glyph-name="space" unicode=" " horiz-adv-x="288" 
 />
    <glyph glyph-name="exclam" unicode="!" horiz-adv-x="240" 
d="M136 209h-33v473h33v-473zM120 54c20 0 33 -14 33 -32s-13 -32 -33 -32c-19 0 -33 14 -33 32s14 32 33 32z" />
    <glyph glyph-name="quotedbl" unicode="&#x22;" horiz-adv-x="336" 
d="M79 682h36l-5 -244h-27zM221 682h37l-5 -244h-27z" />
    <glyph glyph-name="numbersign" unicode="#" horiz-adv-x="493" 
d="M397 455l-30 -232h74v-31h-78l-26 -192h-37l26 192h-197l-26 -192h-36l26 192h-78v31h82l30 232h-75v31h80l23 176h36l-23 -176h197l23 176h37l-23 -176h76v-31h-81zM360 455h-197l-30 -232h197z" />
    <glyph glyph-name="dollar" unicode="$" horiz-adv-x="522" 
d="M458 179c0 -105 -74 -179 -184 -188v-139h-30v138c-84 1 -144 33 -196 79l22 23c46 -41 99 -71 179 -71c104 0 175 60 175 156c0 92 -45 126 -167 164c-134 43 -183 86 -183 174c0 86 68 152 170 157v143h30v-143c73 -4 119 -30 164 -71l-22 -23c-48 45 -93 62 -159 62
c-90 0 -148 -50 -148 -124c0 -77 42 -109 161 -145c129 -40 188 -83 188 -192z" />
    <glyph glyph-name="percent" unicode="%" horiz-adv-x="770" 
d="M636 680l-464 -699l-28 18l464 699zM200 674c83 0 140 -61 140 -157s-53 -159 -140 -159c-84 0 -141 61 -141 157s53 159 141 159zM200 646c-76 0 -107 -60 -107 -131c0 -69 31 -129 107 -129c75 0 106 60 106 131c0 69 -31 129 -106 129zM570 306c84 0 141 -61 141 -156
c0 -97 -53 -160 -141 -160c-83 0 -140 61 -140 157s53 159 140 159zM570 278c-75 0 -106 -60 -106 -131c0 -69 31 -129 106 -129c76 0 107 60 107 132c0 68 -31 128 -107 128z" />
    <glyph glyph-name="ampersand" unicode="&#x26;" horiz-adv-x="729" 
d="M300 693c91 0 155 -60 155 -146c0 -77 -54 -126 -162 -185l225 -210c32 64 54 126 70 206l33 -10c-18 -85 -45 -154 -81 -217l132 -122l-27 -19l-123 113c-50 -65 -115 -113 -225 -113c-111 0 -200 71 -200 178c0 93 56 148 146 199c-68 66 -102 105 -102 175
c0 85 66 151 159 151zM300 663c-77 0 -124 -55 -124 -120c0 -49 9 -77 95 -160c103 53 149 99 149 164c0 75 -54 116 -120 116zM266 347c-86 -48 -134 -101 -134 -178c0 -87 70 -148 165 -148c97 0 154 40 202 103z" />
    <glyph glyph-name="quotesingle" unicode="'" horiz-adv-x="194" 
d="M79 682h36l-5 -244h-27z" />
    <glyph glyph-name="parenleft" unicode="(" horiz-adv-x="324" 
d="M261 818c-89 -131 -163 -248 -163 -468s74 -337 163 -468l-23 -14c-96 135 -175 252 -175 482s79 347 175 482z" />
    <glyph glyph-name="parenright" unicode=")" horiz-adv-x="324" 
d="M86 832c96 -135 175 -252 175 -482s-79 -347 -175 -482l-23 14c89 131 163 248 163 468s-74 337 -163 468z" />
    <glyph glyph-name="asterisk" unicode="*" horiz-adv-x="433" 
d="M239 552l95 -127l-28 -20l-89 131l-90 -131l-28 20l97 125l-153 47l11 30l149 -54l-3 161h34l-3 -159l149 52l10 -30z" />
    <glyph glyph-name="plus" unicode="+" horiz-adv-x="489" 
d="M262 347h153v-32h-153v-154h-34v154h-154v32h154v153h34v-153z" />
    <glyph glyph-name="comma" unicode="," horiz-adv-x="184" 
d="M92 54c20 0 32 -14 32 -32c0 -14 -6 -29 -12 -43l-48 -120h-26l40 134c-12 5 -19 16 -19 29c0 18 14 32 33 32z" />
    <glyph glyph-name="hyphen" unicode="-" horiz-adv-x="399" 
d="M74 329h251v-32h-251v32z" />
    <glyph glyph-name="period" unicode="." horiz-adv-x="184" 
d="M92 54c20 0 32 -14 32 -32s-12 -32 -32 -32c-19 0 -33 14 -33 32s14 32 33 32z" />
    <glyph glyph-name="slash" unicode="/" horiz-adv-x="520" 
d="M391 792l-232 -889l-31 8l232 889z" />
    <glyph glyph-name="zero" unicode="0" horiz-adv-x="544" 
d="M272 674c128 0 198 -114 198 -344c0 -226 -71 -340 -198 -340s-198 115 -198 342c0 228 71 342 198 342zM272 643c-103 0 -163 -100 -163 -311c0 -210 59 -311 163 -311c105 0 163 99 163 309c0 211 -57 313 -163 313z" />
    <glyph glyph-name="one" unicode="1" horiz-adv-x="398" 
d="M270 0h-34v622l-170 -107l-17 27l193 120h28v-662z" />
    <glyph glyph-name="two" unicode="2" horiz-adv-x="467" 
d="M222 674c108 0 171 -72 171 -169c0 -138 -70 -216 -305 -472h324l-6 -33h-360v32c254 276 312 347 312 470c0 86 -52 141 -137 141c-69 0 -118 -30 -156 -77l-26 18c51 61 107 90 183 90z" />
    <glyph glyph-name="three" unicode="3" horiz-adv-x="477" 
d="M218 674c107 0 173 -68 173 -163c0 -94 -59 -148 -134 -158c84 -1 151 -61 151 -169c0 -115 -78 -194 -200 -194c-78 0 -135 28 -184 83l24 20c48 -54 97 -72 158 -72c108 0 167 67 167 162c0 107 -65 153 -161 153h-40l5 30h32c72 0 147 43 147 144
c0 82 -55 133 -140 133c-58 0 -104 -18 -154 -64l-20 22c49 48 102 73 176 73z" />
    <glyph glyph-name="four" unicode="4" horiz-adv-x="509" 
d="M469 182h-91v-182h-34v182h-295v27l204 465l29 -12l-196 -449h258l4 205h30v-205h91v-31z" />
    <glyph glyph-name="five" unicode="5" horiz-adv-x="477" 
d="M395 632h-276v-250c28 19 65 36 118 36c114 0 185 -78 185 -204c0 -130 -77 -224 -202 -224c-78 0 -135 28 -181 76l24 22c42 -44 88 -67 158 -67c101 0 165 76 165 193c0 116 -62 173 -152 173c-51 0 -81 -12 -122 -37h-27v312h316z" />
    <glyph glyph-name="six" unicode="6" horiz-adv-x="517" 
d="M287 429c95 0 171 -66 171 -207c0 -147 -76 -232 -183 -232c-149 0 -201 137 -201 301c0 240 88 383 230 383c49 0 82 -15 115 -38l-18 -25c-30 21 -59 32 -98 32c-121 0 -190 -137 -194 -322c41 62 98 108 178 108zM275 21c98 0 148 85 148 200c0 122 -59 177 -138 177
c-75 0 -135 -49 -176 -122c3 -150 47 -255 166 -255z" />
    <glyph glyph-name="seven" unicode="7" horiz-adv-x="432" 
d="M392 635l-270 -641l-33 11l267 626h-322v31h358v-27z" />
    <glyph glyph-name="eight" unicode="8" horiz-adv-x="529" 
d="M317 348c105 -43 153 -87 153 -179c0 -110 -85 -179 -207 -179c-125 0 -204 72 -204 178c0 90 53 156 151 192c-83 35 -121 75 -121 152c0 102 83 162 176 162c90 0 176 -55 176 -163c0 -72 -39 -119 -124 -163zM124 511c0 -63 25 -97 122 -135l41 -16
c83 42 119 84 119 150c0 88 -62 134 -141 134s-141 -48 -141 -133zM264 22c98 0 170 50 170 147c0 88 -46 121 -149 162l-40 16c-107 -39 -151 -92 -151 -179c0 -96 70 -146 170 -146z" />
    <glyph glyph-name="nine" unicode="9" horiz-adv-x="513" 
d="M252 674c134 0 192 -103 192 -274c0 -252 -116 -352 -318 -417l-10 28c177 57 281 146 293 343c-44 -66 -102 -102 -172 -102c-103 0 -178 79 -178 206c0 133 80 216 193 216zM241 283c72 0 121 41 169 113c-1 159 -45 247 -156 247c-97 0 -159 -66 -159 -186
c0 -110 57 -174 146 -174z" />
    <glyph glyph-name="colon" unicode=":" horiz-adv-x="184" 
d="M92 460c20 0 32 -14 32 -32s-12 -32 -32 -32c-19 0 -33 14 -33 32s14 32 33 32zM92 54c20 0 32 -14 32 -32s-12 -32 -32 -32c-19 0 -33 14 -33 32s14 32 33 32z" />
    <glyph glyph-name="semicolon" unicode=";" horiz-adv-x="184" 
d="M92 460c20 0 32 -14 32 -32s-12 -32 -32 -32c-19 0 -33 14 -33 32s14 32 33 32zM92 54c20 0 32 -14 32 -32c0 -14 -6 -29 -12 -43l-48 -120h-26l40 134c-12 5 -19 16 -19 29c0 18 14 32 33 32z" />
    <glyph glyph-name="less" unicode="&#x3c;" horiz-adv-x="494" 
d="M421 483l-311 -150l311 -154l-13 -29l-335 170v26l335 167z" />
    <glyph glyph-name="equal" unicode="=" horiz-adv-x="489" 
d="M74 428h341v-32h-341v32zM74 266h341v-33h-341v33z" />
    <glyph glyph-name="greater" unicode="&#x3e;" horiz-adv-x="494" 
d="M421 346v-26l-334 -170l-14 29l311 154l-311 150l14 30z" />
    <glyph glyph-name="question" unicode="?" horiz-adv-x="439" 
d="M231 693c100 0 160 -63 160 -140c0 -147 -184 -128 -184 -282v-62h-33v65c0 168 181 147 181 279c0 65 -49 108 -124 108c-68 0 -110 -23 -158 -75l-24 19c52 59 106 88 182 88zM193 54c20 0 32 -14 32 -32s-12 -32 -32 -32s-33 14 -33 32s13 32 33 32z" />
    <glyph glyph-name="at" unicode="@" horiz-adv-x="1020" 
d="M526 693c264 0 399 -181 399 -384c0 -225 -88 -294 -170 -294c-63 0 -106 45 -118 112c-31 -70 -80 -110 -150 -110c-89 0 -165 72 -165 215c0 170 91 247 202 247c51 0 99 -16 137 -34v-258c0 -97 37 -143 94 -143c67 0 135 56 135 263c0 194 -129 354 -364 354
c-236 0 -396 -193 -396 -417c0 -257 162 -413 395 -413c76 0 132 12 186 33l10 -30c-56 -19 -109 -34 -197 -34c-247 0 -429 165 -429 444c0 243 173 449 431 449zM489 47c70 0 121 58 139 122v255c-33 16 -63 24 -103 24c-103 0 -168 -79 -168 -216
c0 -123 55 -185 132 -185z" />
    <glyph glyph-name="A" unicode="A" horiz-adv-x="559" 
d="M432 197h-307l-66 -197h-35l234 682h43l234 -682h-37zM421 229l-142 425l-143 -425h285z" />
    <glyph glyph-name="B" unicode="B" horiz-adv-x="590" 
d="M374 362c85 -5 157 -57 157 -176c0 -120 -84 -186 -228 -186h-184v682h145c147 0 233 -55 233 -169c0 -90 -48 -138 -123 -151zM154 650v-275h162c87 0 145 52 145 137c0 96 -69 138 -193 138h-114zM304 32c119 0 191 50 191 154c0 109 -73 159 -174 159h-167v-313h150z
" />
    <glyph glyph-name="C" unicode="C" horiz-adv-x="543" 
d="M345 693c76 0 121 -23 165 -60l-19 -25c-47 36 -83 52 -144 52c-130 0 -237 -93 -237 -319c0 -214 104 -318 233 -318c75 0 114 24 155 58l20 -25c-43 -38 -97 -66 -176 -66c-153 0 -268 122 -268 351c0 236 121 352 271 352z" />
    <glyph glyph-name="D" unicode="D" horiz-adv-x="623" 
d="M249 682c148 0 301 -55 301 -334c0 -287 -162 -348 -297 -348h-134v682h130zM154 650v-618h100c126 0 259 57 259 316c0 264 -138 302 -266 302h-93z" />
    <glyph glyph-name="E" unicode="E" horiz-adv-x="496" 
d="M444 650h-290v-276h251v-31h-251v-311h301v-32h-336v682h330z" />
    <glyph glyph-name="F" unicode="F" horiz-adv-x="473" 
d="M439 650h-285v-290h246v-31h-246v-329h-35v682h325z" />
    <glyph glyph-name="G" unicode="G" horiz-adv-x="609" 
d="M348 693c75 0 124 -21 177 -62l-21 -24c-48 37 -93 53 -156 53c-114 0 -238 -88 -238 -315c0 -219 98 -323 242 -323c64 0 108 14 153 39v267h-142l-4 32h181v-318c-57 -34 -123 -52 -188 -52c-164 0 -278 119 -278 355c0 238 140 348 274 348z" />
    <glyph glyph-name="H" unicode="H" horiz-adv-x="663" 
d="M509 344h-355v-344h-35v682h35v-306h355v306h35v-682h-35v344z" />
    <glyph glyph-name="I" unicode="I" horiz-adv-x="273" 
d="M154 0h-35v682h35v-682z" />
    <glyph glyph-name="J" unicode="J" horiz-adv-x="281" 
d="M168 89c0 -106 -27 -146 -139 -195l-10 26c91 43 114 78 114 171v591h35v-593z" />
    <glyph glyph-name="K" unicode="K" horiz-adv-x="518" 
d="M154 0h-35v682h35v-682zM201 367l317 -367h-43l-318 367l303 315h42z" />
    <glyph glyph-name="L" unicode="L" horiz-adv-x="458" 
d="M154 33h288l-6 -33h-317v682h35v-649z" />
    <glyph glyph-name="M" unicode="M" horiz-adv-x="766" 
d="M691 0h-34l-37 340c-12 112 -26 245 -31 311l-190 -568h-33l-194 568c-4 -59 -19 -195 -30 -303l-34 -348h-34l70 682h52l187 -557l183 557h53z" />
    <glyph glyph-name="N" unicode="N" horiz-adv-x="665" 
d="M547 0h-44l-355 643c3 -40 5 -93 5 -213v-430h-34v682h44l354 -643c-2 39 -4 107 -4 198v445h34v-682z" />
    <glyph glyph-name="O" unicode="O" horiz-adv-x="690" 
d="M345 693c162 0 271 -122 271 -353c0 -222 -104 -350 -271 -350c-161 0 -271 124 -271 349c0 226 111 354 271 354zM345 660c-139 0 -235 -107 -235 -321c0 -209 97 -317 235 -317c146 0 235 108 235 318c0 215 -94 320 -235 320z" />
    <glyph glyph-name="P" unicode="P" horiz-adv-x="562" 
d="M265 682c155 0 244 -59 244 -199c0 -151 -103 -207 -249 -207h-106v-276h-35v682h146zM263 308c122 0 209 41 209 174c0 125 -74 169 -207 169h-111v-343h109z" />
    <glyph glyph-name="Q" unicode="Q" horiz-adv-x="675" 
d="M432 13c73 -2 149 -19 205 -69l-24 -29c-72 62 -148 77 -268 77c-161 0 -271 122 -271 347c0 226 111 354 271 354c162 0 271 -122 271 -353c0 -201 -80 -299 -184 -327zM110 339c0 -209 97 -317 235 -317c146 0 235 108 235 318c0 215 -94 320 -235 320
c-139 0 -235 -107 -235 -321z" />
    <glyph glyph-name="R" unicode="R" horiz-adv-x="579" 
d="M313 318h-159v-318h-35v682h155c160 0 231 -64 231 -180c0 -106 -62 -157 -155 -178l190 -324h-44zM281 350c118 0 187 47 187 152c0 96 -53 149 -197 149h-117v-301h127z" />
    <glyph glyph-name="S" unicode="S" horiz-adv-x="535" 
d="M265 693c85 0 135 -28 185 -73l-22 -24c-50 45 -95 64 -162 64c-95 0 -155 -52 -155 -128c0 -79 44 -113 166 -150c133 -40 194 -85 194 -198c0 -116 -88 -194 -214 -194c-90 0 -153 33 -209 83l23 24c49 -45 102 -75 185 -75c107 0 180 62 180 160
c0 95 -46 131 -172 170c-138 43 -189 88 -189 180c0 91 75 161 190 161z" />
    <glyph glyph-name="T" unicode="T" horiz-adv-x="480" 
d="M464 649h-207v-649h-35v649h-207v33h455z" />
    <glyph glyph-name="U" unicode="U" horiz-adv-x="644" 
d="M536 209c0 -128 -66 -219 -213 -219c-150 0 -214 91 -214 219v473h35v-470c0 -113 52 -190 179 -190s177 79 177 190v470h36v-473z" />
    <glyph glyph-name="V" unicode="V" horiz-adv-x="539" 
d="M291 0h-43l-224 682h37l209 -648l208 648h37z" />
    <glyph glyph-name="W" unicode="W" horiz-adv-x="798" 
d="M606 0h-42l-165 647l-166 -647h-41l-158 682h37l144 -647l163 647h42l165 -647l143 647h36z" />
    <glyph glyph-name="X" unicode="X" horiz-adv-x="492" 
d="M482 0h-40l-197 347l-192 -347h-39l210 369l-188 313h40l169 -291l167 291h38l-185 -312z" />
    <glyph glyph-name="Y" unicode="Y" horiz-adv-x="503" 
d="M271 271v-271h-36v270l-216 412h40l195 -382l191 382h39z" />
    <glyph glyph-name="Z" unicode="Z" horiz-adv-x="512" 
d="M462 652l-381 -619h370l-5 -33h-407v31l383 619h-345v32h385v-30z" />
    <glyph glyph-name="bracketleft" unicode="[" horiz-adv-x="314" 
d="M236 774h-107v-857h107v-26h-138v909h138v-26z" />
    <glyph glyph-name="backslash" unicode="\" horiz-adv-x="520" 
d="M391 -89l-31 -8l-232 889l31 8z" />
    <glyph glyph-name="bracketright" unicode="]" horiz-adv-x="314" 
d="M216 -109h-138v26h107v857h-107v26h138v-909z" />
    <glyph glyph-name="asciicircum" unicode="^" horiz-adv-x="524" 
d="M456 527h-42l-152 259l-151 -259h-43l182 300h25z" />
    <glyph glyph-name="underscore" unicode="_" horiz-adv-x="520" 
d="M37 -76h447v-31h-447v31z" />
    <glyph glyph-name="grave" unicode="`" horiz-adv-x="256" 
d="M226 673l-12 -23l-184 84l16 35z" />
    <glyph glyph-name="a" unicode="a" horiz-adv-x="531" 
d="M418 111c0 -67 14 -85 44 -97l-8 -24c-41 11 -63 36 -66 93c-37 -61 -92 -93 -166 -93c-99 0 -158 61 -158 154c0 108 82 167 206 167h114v57c0 88 -32 132 -129 132c-45 0 -91 -12 -142 -32l-9 28c52 22 100 35 153 35c113 0 161 -55 161 -160v-260zM224 21
c75 0 126 38 160 101v159h-107c-110 0 -177 -45 -177 -136c0 -79 48 -124 124 -124z" />
    <glyph glyph-name="b" unicode="b" horiz-adv-x="572" 
d="M311 531c120 0 186 -95 186 -267c0 -170 -67 -274 -193 -274c-72 0 -125 38 -157 82l-4 -72h-29v734l34 5v-296c37 51 91 88 163 88zM302 21c103 0 160 85 160 243c0 157 -54 236 -153 236c-74 0 -119 -39 -161 -96v-292c36 -54 86 -91 154 -91z" />
    <glyph glyph-name="c" unicode="c" horiz-adv-x="463" 
d="M284 531c57 0 97 -15 139 -51l-19 -23c-32 28 -68 42 -119 42c-103 0 -180 -81 -180 -242c0 -157 76 -236 179 -236c52 0 91 18 126 48l18 -25c-37 -33 -85 -54 -142 -54c-130 0 -217 97 -217 267c0 169 86 274 215 274z" />
    <glyph glyph-name="d" unicode="d" horiz-adv-x="576" 
d="M463 734v-734h-30l-4 86c-27 -51 -77 -96 -161 -96c-117 0 -194 100 -194 268c0 161 76 273 204 273c79 0 123 -40 151 -77v285zM270 21c77 0 123 40 159 111v281c-30 47 -76 87 -148 87c-101 0 -172 -89 -171 -242c0 -151 62 -237 160 -237z" />
    <glyph glyph-name="e" unicode="e" horiz-adv-x="530" 
d="M466 283c0 -15 -1 -31 -2 -40h-360c7 -154 80 -222 179 -222c60 0 98 20 144 55l18 -24c-46 -39 -95 -62 -162 -62c-131 0 -214 98 -214 266c0 170 80 275 202 275c131 0 195 -99 195 -248zM432 272v23c0 121 -49 205 -159 205c-89 0 -164 -69 -169 -228h328z" />
    <glyph glyph-name="f" unicode="f" horiz-adv-x="312" 
d="M251 708c-61 0 -100 -27 -100 -96v-92h145l-5 -29h-140v-491h-34v491h-88v29h88v96c0 78 52 123 131 123c42 0 83 -11 119 -29l-13 -27c-34 16 -67 25 -103 25z" />
    <glyph glyph-name="g" unicode="g" horiz-adv-x="491" 
d="M477 519c-30 -8 -73 -13 -138 -14c50 -25 86 -69 86 -149c0 -101 -68 -168 -181 -168c-26 0 -49 4 -69 11c-30 -17 -49 -40 -49 -69c0 -35 24 -61 93 -61h86c100 0 158 -51 158 -125c0 -89 -67 -144 -212 -144c-149 0 -212 41 -212 143h33c2 -82 47 -112 179 -112
c127 0 177 43 177 111c0 60 -46 96 -126 96h-86c-82 0 -125 38 -125 86c0 36 23 65 58 86c-59 30 -88 78 -88 149c0 102 70 172 184 172c146 -2 177 8 221 24zM245 501c-101 0 -149 -59 -149 -142c0 -94 63 -142 148 -142c93 0 146 51 146 139c0 85 -46 145 -145 145z" />
    <glyph glyph-name="h" unicode="h" horiz-adv-x="582" 
d="M333 531c93 0 141 -61 141 -160v-371h-34v366c0 90 -37 135 -110 135c-80 0 -134 -49 -182 -119v-382h-34v734l34 6v-317c46 65 105 108 185 108z" />
    <glyph glyph-name="i" unicode="i" horiz-adv-x="261" 
d="M130 734c19 0 29 -13 29 -27c0 -15 -10 -28 -29 -28c-17 0 -28 13 -28 28c0 14 11 27 28 27zM148 0h-34v520h34v-520z" />
    <glyph glyph-name="j" unicode="j" horiz-adv-x="262" 
d="M130 734c19 0 29 -13 29 -27c0 -15 -10 -28 -29 -28c-17 0 -28 13 -28 28c0 14 11 27 28 27zM149 10c0 -134 -40 -166 -122 -207l-10 25c69 36 98 65 98 182v510h34v-510z" />
    <glyph glyph-name="k" unicode="k" horiz-adv-x="472" 
d="M148 0h-34v734l34 5v-739zM196 286l262 -286h-42l-262 284l238 236h42z" />
    <glyph glyph-name="l" unicode="l" horiz-adv-x="278" 
d="M143 79c0 -39 13 -58 50 -58c12 0 24 3 36 8l10 -28c-13 -6 -32 -11 -51 -11c-49 0 -79 27 -79 90v654l34 5v-660z" />
    <glyph glyph-name="m" unicode="m" horiz-adv-x="850" 
d="M610 531c83 0 131 -61 131 -160v-371h-34v366c0 90 -36 135 -99 135c-68 0 -121 -49 -164 -119v-382h-34v366c0 90 -35 135 -99 135c-67 0 -121 -49 -163 -119v-382h-34v520h29l4 -96c41 63 100 107 166 107c70 0 114 -42 127 -113c41 67 102 113 170 113z" />
    <glyph glyph-name="n" unicode="n" horiz-adv-x="582" 
d="M333 531c94 0 141 -59 141 -160v-371h-34v366c0 92 -37 135 -110 135c-80 0 -134 -49 -182 -119v-382h-34v520h29l4 -97c46 64 105 108 186 108z" />
    <glyph glyph-name="o" unicode="o" horiz-adv-x="562" 
d="M282 531c130 0 211 -95 211 -269c0 -172 -83 -272 -212 -272c-132 0 -212 101 -212 269c0 172 84 272 213 272zM282 500c-108 0 -177 -82 -177 -241c0 -153 66 -238 176 -238c108 0 177 83 177 241c0 155 -66 238 -176 238z" />
    <glyph glyph-name="p" unicode="p" horiz-adv-x="572" 
d="M311 531c121 0 186 -95 186 -267c0 -169 -67 -274 -193 -274c-72 0 -125 37 -156 81v-265l-34 -6v720h29l3 -78c38 51 93 89 165 89zM302 21c104 0 160 85 160 243c0 157 -53 236 -153 236c-74 0 -119 -39 -161 -96v-293c36 -53 86 -90 154 -90z" />
    <glyph glyph-name="q" unicode="q" horiz-adv-x="571" 
d="M458 520v-720l-34 6v277c-28 -49 -77 -93 -161 -93c-117 0 -194 100 -194 268c0 161 76 273 205 273c79 0 124 -40 151 -77l3 66h30zM266 21c77 0 122 39 158 109v285c-30 46 -76 85 -147 85c-102 0 -173 -89 -172 -242c0 -151 62 -237 161 -237z" />
    <glyph glyph-name="r" unicode="r" horiz-adv-x="364" 
d="M298 531c23 0 40 -3 52 -6l-7 -31c-13 4 -29 6 -46 6c-77 0 -118 -56 -149 -168v-332h-34v520h29l2 -124c28 90 75 135 153 135z" />
    <glyph glyph-name="s" unicode="s" horiz-adv-x="461" 
d="M231 531c62 0 110 -19 159 -58l-20 -23c-45 34 -82 50 -137 50c-76 0 -130 -39 -130 -101c0 -58 37 -83 136 -109c118 -32 164 -67 164 -154c0 -88 -73 -146 -175 -146c-83 0 -135 29 -180 66l21 23c46 -37 89 -58 159 -58c80 0 140 40 140 114c0 71 -32 97 -145 128
c-110 29 -155 64 -155 137c0 77 71 131 163 131z" />
    <glyph glyph-name="t" unicode="t" horiz-adv-x="327" 
d="M332 20c-29 -18 -64 -30 -105 -30c-72 0 -118 43 -118 129v372h-85v29h85v130l34 3v-133h142l-5 -29h-137v-370c0 -66 29 -100 87 -100c33 0 61 10 87 25z" />
    <glyph glyph-name="u" unicode="u" horiz-adv-x="577" 
d="M464 0h-30l-1 101c-34 -61 -91 -111 -176 -111c-94 0 -148 56 -148 159v371h34v-368c0 -91 42 -131 119 -131s128 49 168 118v381h34v-520z" />
    <glyph glyph-name="v" unicode="v" horiz-adv-x="455" 
d="M254 0h-44l-191 520h39l173 -490l167 490h37z" />
    <glyph glyph-name="w" unicode="w" horiz-adv-x="685" 
d="M523 0h-46l-133 487l-133 -487h-46l-136 520h37l123 -489l135 489h41l135 -490l121 490h35z" />
    <glyph glyph-name="x" unicode="x" horiz-adv-x="440" 
d="M426 0h-41l-167 258l-164 -258h-40l184 278l-159 242h40l141 -221l142 221h39l-161 -241z" />
    <glyph glyph-name="y" unicode="y" horiz-adv-x="451" 
d="M249 -2c-40 -115 -77 -165 -191 -196l-4 27c104 30 127 72 163 171h-13l-185 520h38l170 -494l167 494h37z" />
    <glyph glyph-name="z" unicode="z" horiz-adv-x="412" 
d="M377 493l-305 -462h299l-3 -31h-338v28l305 461h-280v31h322v-27z" />
    <glyph glyph-name="braceleft" unicode="{" horiz-adv-x="329" 
d="M251 797c-61 0 -82 -28 -82 -87v-263c0 -67 -24 -88 -75 -98c51 -10 75 -31 75 -98v-263c0 -58 21 -87 82 -87v-26c-71 0 -113 33 -113 109v278c0 53 -33 71 -80 71v32c47 0 80 18 80 71v278c0 76 42 109 113 109v-26z" />
    <glyph glyph-name="bar" unicode="|" horiz-adv-x="410" 
d="M221 -99h-33v901h33v-901z" />
    <glyph glyph-name="braceright" unicode="}" horiz-adv-x="329" 
d="M78 823c70 0 113 -33 113 -109v-278c0 -53 32 -71 80 -71v-32c-48 0 -80 -18 -80 -71v-278c0 -76 -43 -109 -113 -109v26c60 0 82 29 82 87v263c0 67 24 88 75 98c-51 10 -75 31 -75 98v263c0 59 -22 87 -82 87v26z" />
    <glyph glyph-name="asciitilde" unicode="~" horiz-adv-x="460" 
d="M155 362c59 0 106 -56 153 -56c32 0 46 17 66 42l23 -14c-25 -36 -47 -61 -89 -61c-56 0 -107 56 -153 56c-34 0 -49 -17 -69 -42l-23 13c25 36 48 62 92 62z" />
    <glyph glyph-name="uni00A0" unicode="&#xa0;" horiz-adv-x="290" 
 />
    <glyph glyph-name="exclamdown" unicode="&#xa1;" horiz-adv-x="240" 
d="M120 460c19 0 33 -14 33 -31c0 -19 -14 -33 -33 -33c-20 0 -33 14 -33 33c0 17 13 31 33 31zM137 -194h-33v445h33v-445z" />
    <glyph glyph-name="cent" unicode="&#xa2;" horiz-adv-x="463" 
d="M428 44c-34 -31 -78 -51 -130 -54v-137h-30v138c-120 8 -199 104 -199 266s79 266 200 274v146h29v-146c50 -3 87 -18 125 -51l-19 -23c-32 28 -68 42 -119 42c-103 0 -180 -81 -180 -242c0 -157 76 -236 179 -236c52 0 91 18 126 48z" />
    <glyph glyph-name="sterling" unicode="&#xa3;" horiz-adv-x="506" 
d="M177 148c0 -67 -23 -92 -71 -116h334l-4 -32h-377v31c59 30 84 53 84 115v192h-65v30h65v136c0 94 53 170 160 170c64 0 109 -23 150 -70l-24 -20c-34 39 -69 59 -126 59c-85 0 -126 -59 -126 -140v-135h218v-30h-218v-190z" />
    <glyph glyph-name="currency" unicode="&#xa4;" 
d="M459 341c0 -49 -15 -94 -43 -127l80 -80l-22 -23l-81 81c-29 -23 -67 -37 -112 -37c-46 0 -84 14 -113 38l-82 -82l-22 23l82 81c-28 33 -43 77 -43 126c0 48 15 91 42 124l-81 81l22 22l81 -81c29 24 68 39 114 39s84 -14 113 -38l80 80l22 -22l-79 -79
c27 -33 42 -78 42 -126zM136 340c0 -90 49 -155 145 -155c98 0 144 66 144 155c0 91 -46 156 -144 156c-96 0 -145 -65 -145 -156z" />
    <glyph glyph-name="yen" unicode="&#xa5;" horiz-adv-x="495" 
d="M280 333h120v-30h-134v-112h134v-31h-134v-160h-35v160h-133v31h133v112h-133v30h119l-198 329h40l190 -326l188 326h39z" />
    <glyph glyph-name="brokenbar" unicode="&#xa6;" horiz-adv-x="410" 
d="M221 408h-33v359h33v-359zM221 -64h-33v361h33v-361z" />
    <glyph glyph-name="section" unicode="&#xa7;" horiz-adv-x="532" 
d="M360 161c38 -22 55 -50 55 -97c0 -80 -68 -130 -160 -130c-67 0 -114 17 -159 45l17 26c41 -28 86 -40 143 -40c79 0 124 41 124 96c0 53 -20 76 -125 113c-108 38 -162 66 -162 147c0 50 28 91 82 128c-41 25 -55 52 -55 95c0 78 67 129 152 129c67 0 108 -19 150 -45
l-17 -26c-43 27 -80 40 -134 40c-70 0 -116 -43 -116 -96c0 -55 23 -77 134 -114c109 -37 150 -73 150 -147c0 -49 -22 -88 -79 -124zM128 323c0 -59 26 -82 136 -121c28 -9 52 -18 71 -27c53 33 69 65 69 109c0 53 -17 83 -125 120c-32 11 -59 21 -80 32
c-50 -34 -71 -70 -71 -113z" />
    <glyph glyph-name="dieresis" unicode="&#xa8;" horiz-adv-x="291" 
d="M57 723c17 0 28 -12 28 -27s-11 -27 -28 -27c-16 0 -27 12 -27 27s11 27 27 27zM232 723c17 0 28 -12 28 -27s-11 -27 -28 -27s-28 12 -28 27s11 27 28 27z" />
    <glyph glyph-name="copyright" unicode="&#xa9;" horiz-adv-x="810" 
d="M405 727c163 0 285 -120 285 -292c0 -170 -122 -292 -285 -292s-285 120 -285 292c0 170 122 292 285 292zM406 698c-147 0 -253 -109 -253 -263c0 -157 106 -263 253 -263c145 0 251 109 251 263c0 157 -106 263 -251 263zM406 609c39 0 65 -11 91 -31l-16 -22
c-22 15 -41 23 -75 23c-43 0 -104 -31 -104 -142c0 -99 46 -146 105 -146c39 0 62 13 83 28l16 -23c-24 -19 -56 -35 -100 -35c-81 0 -138 69 -138 176c0 120 74 172 138 172z" />
    <glyph glyph-name="ordfeminine" unicode="&#xaa;" horiz-adv-x="500" 
d="M217 276c-80 0 -129 45 -129 116c0 82 68 126 167 126h89v41c0 64 -24 93 -101 93c-36 0 -73 -9 -112 -23l-10 28c42 16 80 25 123 25c93 0 134 -39 134 -120v-194c0 -49 12 -60 34 -69l-8 -23c-33 8 -52 26 -56 66c-30 -44 -74 -66 -131 -66zM261 489
c-85 0 -137 -30 -137 -97c0 -56 38 -86 94 -86c59 0 99 29 126 75v108h-83zM427 32v-32h-340v32h340z" />
    <glyph glyph-name="guillemotleft" unicode="&#xab;" horiz-adv-x="541" 
d="M261 494l-139 -206l139 -205l-23 -15l-155 209v22l155 210zM458 494l-138 -206l138 -205l-22 -15l-155 209v22l155 210z" />
    <glyph glyph-name="logicalnot" unicode="&#xac;" horiz-adv-x="498" 
d="M424 188h-35v116h-315v33h350v-149z" />
    <glyph glyph-name="softhyphen" unicode="&#xad;" horiz-adv-x="399" 
d="M74 329h251v-32h-251v32z" />
    <glyph glyph-name="registered" unicode="&#xae;" horiz-adv-x="638" 
d="M319 728c129 0 231 -97 231 -228c0 -127 -102 -230 -231 -230s-230 96 -230 227c0 127 101 231 230 231zM319 297c111 0 201 90 201 203c0 115 -88 200 -201 200c-110 0 -201 -90 -201 -203c0 -115 91 -200 201 -200zM412 558c0 -40 -23 -62 -62 -71l74 -120h-39l-67 116
h-44v-116h-32v270h63c73 0 107 -26 107 -79zM274 510h45c37 0 61 12 61 48c0 40 -25 51 -70 51h-36v-99z" />
    <glyph glyph-name="macron" unicode="&#xaf;" horiz-adv-x="278" 
d="M30 682v32h218v-32h-218z" />
    <glyph glyph-name="degree" unicode="&#xb0;" horiz-adv-x="519" 
d="M219 405c-72 0 -141 54 -141 144c0 88 69 144 141 144c78 0 142 -56 142 -145c0 -86 -64 -143 -142 -143zM219 436c67 0 108 47 108 112c0 68 -41 114 -108 114c-60 0 -107 -46 -107 -113c0 -66 47 -113 107 -113z" />
    <glyph glyph-name="plusminus" unicode="&#xb1;" horiz-adv-x="489" 
d="M262 348h153v-32h-153v-154h-34v154h-154v32h154v154h34v-154zM74 32h341v-32h-341v32z" />
    <glyph glyph-name="twosuperior" unicode="&#xb2;" horiz-adv-x="400" 
d="M198 740c72 0 115 -46 115 -107c0 -85 -45 -132 -192 -280h205l-6 -30h-239v29c163 165 198 207 198 278c0 52 -32 80 -83 80c-43 0 -74 -18 -98 -46l-24 18c36 41 74 58 124 58z" />
    <glyph glyph-name="threesuperior" unicode="&#xb3;" horiz-adv-x="400" 
d="M201 742c70 0 117 -42 117 -103c0 -55 -35 -89 -85 -97c52 -2 95 -38 95 -104c0 -72 -52 -122 -136 -122c-51 0 -89 19 -121 53l21 18c32 -32 64 -42 99 -42c69 0 104 38 104 93c0 64 -40 88 -99 88h-27l4 28h19c44 0 93 24 93 84c0 48 -35 75 -86 75
c-37 0 -64 -10 -99 -38l-18 21c34 29 67 46 119 46z" />
    <glyph glyph-name="acute" unicode="&#xb4;" horiz-adv-x="258" 
d="M226 734l-184 -84l-12 23l180 96z" />
    <glyph glyph-name="uni00B5" unicode="&#xb5;" horiz-adv-x="583" 
d="M459 -7c-15 42 -23 68 -27 120c-38 -67 -89 -123 -173 -123c-60 0 -102 28 -117 74c4 -48 6 -83 6 -133v-125l-34 -2v716h34v-374c0 -93 57 -125 111 -125c74 0 127 52 168 132v367h34v-346c0 -77 11 -127 29 -178z" />
    <glyph glyph-name="paragraph" unicode="&#xb6;" horiz-adv-x="690" 
d="M531 682v-876l-33 -6v851h-138v-845l-34 -6v503c-163 5 -217 89 -217 189c0 121 80 189 221 189z" />
    <glyph glyph-name="periodcentered" unicode="&#xb7;" horiz-adv-x="184" 
d="M92 357c20 0 32 -15 32 -33c0 -17 -12 -32 -32 -32c-19 0 -33 15 -33 32c0 18 14 33 33 33z" />
    <glyph glyph-name="cedilla" unicode="&#xb8;" horiz-adv-x="224" 
d="M103 -70c63 -4 91 -29 91 -70c0 -49 -42 -78 -92 -78c-32 0 -55 9 -72 20l14 25c13 -9 32 -15 58 -15c32 0 59 15 59 48c0 32 -27 46 -89 47l7 109h24v-86z" />
    <glyph glyph-name="onesuperior" unicode="&#xb9;" horiz-adv-x="400" 
d="M247 323h-32v374l-107 -62l-16 24l129 75h26v-411z" />
    <glyph glyph-name="ordmasculine" unicode="&#xba;" horiz-adv-x="500" 
d="M248 682c106 0 173 -69 173 -201c0 -130 -69 -205 -174 -205c-106 0 -171 76 -171 203c0 128 68 203 172 203zM249 652c-84 0 -137 -57 -137 -173c0 -112 52 -173 136 -173c85 0 137 59 137 175c0 113 -49 171 -136 171zM78 32h340v-32h-340v32z" />
    <glyph glyph-name="guillemotright" unicode="&#xbb;" horiz-adv-x="531" 
d="M261 299v-22l-156 -209l-22 15l139 205l-139 206l22 15zM448 299v-22l-155 -209l-22 15l138 205l-138 206l22 15z" />
    <glyph glyph-name="onequarter" unicode="&#xbc;" horiz-adv-x="902" 
d="M669 732l-409 -798l-27 13l409 798zM215 271v374l-107 -62l-16 24l129 75h26v-411h-32zM841 108h-57v-108h-32v108h-190v25l131 286l27 -11l-124 -271h156l4 122h28v-122h57v-29z" />
    <glyph glyph-name="onehalf" unicode="&#xbd;" horiz-adv-x="902" 
d="M669 732l-409 -798l-27 13l409 798zM247 271h-32v374l-107 -62l-16 24l129 75h26v-411zM700 417c72 0 115 -46 115 -107c0 -85 -45 -132 -192 -280h205l-6 -30h-239v29c163 165 198 207 198 278c0 52 -32 80 -83 80c-43 0 -74 -18 -98 -46l-24 18c36 41 74 58 124 58z
" />
    <glyph glyph-name="threequarters" unicode="&#xbe;" horiz-adv-x="902" 
d="M669 732l-409 -798l-27 13l409 798zM328 386c0 -72 -52 -122 -136 -122c-51 0 -89 19 -121 53l21 18c32 -32 64 -42 99 -42c69 0 104 38 104 93c0 64 -40 88 -99 88h-27l4 28h19c44 0 93 24 93 84c0 48 -35 75 -86 75c-37 0 -64 -10 -99 -38l-18 21c34 29 67 46 119 46
c70 0 117 -42 117 -103c0 -55 -35 -89 -85 -97c52 -2 95 -38 95 -104zM841 108h-57v-108h-32v108h-190v25l131 286l27 -11l-124 -271h156l4 122h28v-122h57v-29z" />
    <glyph glyph-name="questiondown" unicode="&#xbf;" horiz-adv-x="439" 
d="M247 396c-21 0 -33 14 -33 33c0 17 12 31 33 31c19 0 32 -14 32 -31c0 -19 -13 -33 -32 -33zM208 -200c-100 0 -159 64 -159 132c0 148 183 135 183 270v49h33v-52c0 -151 -180 -137 -180 -267c0 -57 48 -101 123 -101c68 0 110 24 158 76l25 -19
c-53 -60 -107 -88 -183 -88z" />
    <glyph glyph-name="Agrave" unicode="&#xc0;" horiz-adv-x="559" 
d="M362 761l-186 76l17 35l179 -89zM432 197h-307l-66 -197h-35l234 682h43l234 -682h-37zM421 229l-142 425l-143 -425h285z" />
    <glyph glyph-name="Aacute" unicode="&#xc1;" horiz-adv-x="559" 
d="M197 761l-10 22l178 89l18 -35zM432 197h-307l-66 -197h-35l234 682h43l234 -682h-37zM421 229l-142 425l-143 -425h285z" />
    <glyph glyph-name="Acircumflex" unicode="&#xc2;" horiz-adv-x="559" 
d="M161 765l-17 19l126 95h19l124 -95l-16 -19l-118 79zM432 197h-307l-66 -197h-35l234 682h43l234 -682h-37zM421 229l-142 425l-143 -425h285z" />
    <glyph glyph-name="Atilde" unicode="&#xc3;" horiz-adv-x="559" 
d="M221 843c-30 0 -39 -10 -59 -36l-21 12c21 34 45 54 80 54c40 0 78 -43 119 -43c20 0 35 11 57 43l21 -12c-22 -44 -49 -61 -75 -61c-56 0 -88 43 -122 43zM432 197h-307l-66 -197h-35l234 682h43l234 -682h-37zM421 229l-142 425l-143 -425h285z" />
    <glyph glyph-name="Adieresis" unicode="&#xc4;" horiz-adv-x="559" 
d="M191 795c-16 0 -27 12 -27 27s11 27 27 27c17 0 28 -12 28 -27s-11 -27 -28 -27zM366 795c-17 0 -28 12 -28 27s11 27 28 27s28 -12 28 -27s-11 -27 -28 -27zM432 197h-307l-66 -197h-35l234 682h43l234 -682h-37zM421 229l-142 425l-143 -425h285z" />
    <glyph glyph-name="Aring" unicode="&#xc5;" horiz-adv-x="559" 
d="M280 765c-52 0 -88 34 -88 85c0 52 36 86 88 86s88 -34 88 -86c0 -51 -36 -85 -88 -85zM280 910c-37 0 -57 -22 -57 -60c0 -37 20 -59 57 -59c36 0 57 22 57 59c0 38 -20 60 -57 60zM432 197h-307l-66 -197h-35l234 682h43l234 -682h-37zM421 229l-142 425l-143 -425h285
z" />
    <glyph glyph-name="AE" unicode="&#xc6;" horiz-adv-x="761" 
d="M720 32v-32h-256l-50 192h-298l-73 -192h-35l263 682h397l-5 -32h-335l72 -276h261v-31h-253l82 -311h230zM405 224l-112 430l-164 -430h276z" />
    <glyph glyph-name="Ccedilla" unicode="&#xc7;" horiz-adv-x="543" 
d="M347 -70c63 -4 91 -29 91 -70c0 -49 -42 -78 -92 -78c-32 0 -55 9 -72 20l14 25c13 -9 32 -15 58 -15c32 0 59 15 59 48c0 32 -27 46 -89 47l5 84c-142 10 -247 131 -247 350c0 236 121 352 271 352c76 0 121 -23 165 -60l-19 -25c-47 36 -83 52 -144 52
c-130 0 -237 -93 -237 -319c0 -214 104 -318 233 -318c75 0 114 24 155 58l20 -25c-42 -37 -95 -65 -171 -66v-60z" />
    <glyph glyph-name="Egrave" unicode="&#xc8;" horiz-adv-x="496" 
d="M380 783l-10 -22l-186 76l17 35zM444 650h-290v-276h251v-31h-251v-311h301v-32h-336v682h330z" />
    <glyph glyph-name="Eacute" unicode="&#xc9;" horiz-adv-x="496" 
d="M391 837l-186 -76l-10 22l178 89zM444 650h-290v-276h251v-31h-251v-311h301v-32h-336v682h330z" />
    <glyph glyph-name="Ecircumflex" unicode="&#xca;" horiz-adv-x="496" 
d="M288 844l-118 -79l-17 19l126 95h19l124 -95l-16 -19zM444 650h-290v-276h251v-31h-251v-311h301v-32h-336v682h330z" />
    <glyph glyph-name="Edieresis" unicode="&#xcb;" horiz-adv-x="496" 
d="M200 849c17 0 28 -12 28 -27s-11 -27 -28 -27c-16 0 -27 12 -27 27s11 27 27 27zM375 849c17 0 28 -12 28 -27s-11 -27 -28 -27s-28 12 -28 27s11 27 28 27zM444 650h-290v-276h251v-31h-251v-311h301v-32h-336v682h330z" />
    <glyph glyph-name="Igrave" unicode="&#xcc;" horiz-adv-x="273" 
d="M228 783l-10 -22l-186 76l17 35zM154 0h-35v682h35v-682z" />
    <glyph glyph-name="Iacute" unicode="&#xcd;" horiz-adv-x="273" 
d="M239 837l-186 -76l-10 22l178 89zM154 0h-35v682h35v-682z" />
    <glyph glyph-name="Icircumflex" unicode="&#xce;" horiz-adv-x="273" 
d="M136 844l-118 -79l-17 19l126 95h19l124 -95l-16 -19zM154 0h-35v682h35v-682z" />
    <glyph glyph-name="Idieresis" unicode="&#xcf;" horiz-adv-x="273" 
d="M48 849c17 0 28 -12 28 -27s-11 -27 -28 -27c-16 0 -27 12 -27 27s11 27 27 27zM223 849c17 0 28 -12 28 -27s-11 -27 -28 -27s-28 12 -28 27s11 27 28 27zM154 0h-35v682h35v-682z" />
    <glyph glyph-name="Eth" unicode="&#xd0;" horiz-adv-x="620" 
d="M246 682c148 0 301 -55 301 -334c0 -287 -162 -348 -297 -348h-134v338h-91v30h91v314h130zM251 32c126 0 259 57 259 316c0 264 -138 302 -266 302h-93v-282h188v-30h-188v-306h100z" />
    <glyph glyph-name="Ntilde" unicode="&#xd1;" horiz-adv-x="665" 
d="M403 800c-56 0 -88 43 -122 43c-30 0 -39 -10 -59 -36l-21 12c21 34 45 54 80 54c40 0 78 -43 119 -43c20 0 35 11 57 43l21 -12c-22 -44 -49 -61 -75 -61zM547 0h-44l-355 643c3 -40 5 -93 5 -213v-430h-34v682h44l354 -643c-2 39 -4 107 -4 198v445h34v-682z" />
    <glyph glyph-name="Ograve" unicode="&#xd2;" horiz-adv-x="690" 
d="M423 783l-10 -22l-186 76l17 35zM345 693c162 0 271 -122 271 -353c0 -222 -104 -350 -271 -350c-161 0 -271 124 -271 349c0 226 111 354 271 354zM345 660c-139 0 -235 -107 -235 -321c0 -209 97 -317 235 -317c146 0 235 108 235 318c0 215 -94 320 -235 320z" />
    <glyph glyph-name="Oacute" unicode="&#xd3;" horiz-adv-x="690" 
d="M435 837l-186 -76l-10 22l178 89zM345 693c162 0 271 -122 271 -353c0 -222 -104 -350 -271 -350c-161 0 -271 124 -271 349c0 226 111 354 271 354zM345 660c-139 0 -235 -107 -235 -321c0 -209 97 -317 235 -317c146 0 235 108 235 318c0 215 -94 320 -235 320z" />
    <glyph glyph-name="Ocircumflex" unicode="&#xd4;" horiz-adv-x="690" 
d="M331 844l-118 -79l-17 19l126 95h19l124 -95l-16 -19zM345 693c162 0 271 -122 271 -353c0 -222 -104 -350 -271 -350c-161 0 -271 124 -271 349c0 226 111 354 271 354zM345 660c-139 0 -235 -107 -235 -321c0 -209 97 -317 235 -317c146 0 235 108 235 318
c0 215 -94 320 -235 320z" />
    <glyph glyph-name="Otilde" unicode="&#xd5;" horiz-adv-x="690" 
d="M394 800c-56 0 -88 43 -122 43c-30 0 -39 -10 -59 -36l-21 12c21 34 45 54 80 54c40 0 78 -43 119 -43c20 0 35 11 57 43l21 -12c-22 -44 -49 -61 -75 -61zM345 693c162 0 271 -122 271 -353c0 -222 -104 -350 -271 -350c-161 0 -271 124 -271 349c0 226 111 354 271 354
zM345 660c-139 0 -235 -107 -235 -321c0 -209 97 -317 235 -317c146 0 235 108 235 318c0 215 -94 320 -235 320z" />
    <glyph glyph-name="Odieresis" unicode="&#xd6;" horiz-adv-x="690" 
d="M243 849c17 0 28 -12 28 -27s-11 -27 -28 -27c-16 0 -27 12 -27 27s11 27 27 27zM418 849c17 0 28 -12 28 -27s-11 -27 -28 -27s-28 12 -28 27s11 27 28 27zM345 693c162 0 271 -122 271 -353c0 -222 -104 -350 -271 -350c-161 0 -271 124 -271 349
c0 226 111 354 271 354zM345 660c-139 0 -235 -107 -235 -321c0 -209 97 -317 235 -317c146 0 235 108 235 318c0 215 -94 320 -235 320z" />
    <glyph glyph-name="multiply" unicode="&#xd7;" horiz-adv-x="489" 
d="M395 438l-129 -131l129 -130l-24 -23l-128 131l-125 -131l-24 23l127 130l-127 131l24 23l125 -132l128 132z" />
    <glyph glyph-name="Oslash" unicode="&#xd8;" horiz-adv-x="690" 
d="M457 670c98 -45 159 -157 159 -330c0 -222 -104 -350 -271 -350c-31 0 -59 4 -86 13l-31 -118l-34 10l37 120c-97 46 -157 157 -157 324c0 226 111 354 271 354c30 0 57 -4 83 -12l33 123l34 -10zM110 339c0 -153 52 -252 133 -294l177 604c-23 7 -48 11 -75 11
c-139 0 -235 -107 -235 -321zM345 22c146 0 235 108 235 318c0 159 -51 257 -134 298l-178 -603c24 -9 49 -13 77 -13z" />
    <glyph glyph-name="Ugrave" unicode="&#xd9;" horiz-adv-x="644" 
d="M418 783l-10 -22l-186 76l17 35zM536 209c0 -128 -66 -219 -213 -219c-150 0 -214 91 -214 219v473h35v-470c0 -113 52 -190 179 -190s177 79 177 190v470h36v-473z" />
    <glyph glyph-name="Uacute" unicode="&#xda;" horiz-adv-x="644" 
d="M429 837l-186 -76l-10 22l178 89zM536 209c0 -128 -66 -219 -213 -219c-150 0 -214 91 -214 219v473h35v-470c0 -113 52 -190 179 -190s177 79 177 190v470h36v-473z" />
    <glyph glyph-name="Ucircumflex" unicode="&#xdb;" horiz-adv-x="644" 
d="M325 844l-118 -79l-17 19l126 95h19l124 -95l-16 -19zM536 209c0 -128 -66 -219 -213 -219c-150 0 -214 91 -214 219v473h35v-470c0 -113 52 -190 179 -190s177 79 177 190v470h36v-473z" />
    <glyph glyph-name="Udieresis" unicode="&#xdc;" horiz-adv-x="644" 
d="M237 849c17 0 28 -12 28 -27s-11 -27 -28 -27c-16 0 -27 12 -27 27s11 27 27 27zM412 849c17 0 28 -12 28 -27s-11 -27 -28 -27s-28 12 -28 27s11 27 28 27zM536 209c0 -128 -66 -219 -213 -219c-150 0 -214 91 -214 219v473h35v-470c0 -113 52 -190 179 -190
s177 79 177 190v470h36v-473z" />
    <glyph glyph-name="Yacute" unicode="&#xdd;" horiz-adv-x="503" 
d="M351 837l-186 -76l-10 22l178 89zM271 271v-271h-36v270l-216 412h40l195 -382l191 382h39z" />
    <glyph glyph-name="Thorn" unicode="&#xde;" horiz-adv-x="562" 
d="M265 557c155 0 244 -60 244 -200c0 -158 -103 -214 -249 -214h-106v-143h-35v682h35v-125h111zM263 175c122 0 209 40 209 181c0 126 -74 169 -207 169h-111v-350h109z" />
    <glyph glyph-name="germandbls" unicode="&#xdf;" horiz-adv-x="574" 
d="M292 739c90 0 153 -54 153 -129c0 -108 -120 -121 -120 -189c0 -86 195 -93 195 -270c0 -95 -58 -161 -152 -161c-42 0 -69 10 -92 22l13 26c18 -9 40 -17 78 -17c71 0 118 46 118 130c0 165 -194 159 -194 270c0 82 119 89 119 188c0 61 -47 99 -118 99
c-82 0 -144 -52 -144 -171v-537h-34v541c0 129 76 198 178 198z" />
    <glyph glyph-name="agrave" unicode="&#xe0;" horiz-adv-x="531" 
d="M347 650l-184 84l16 35l180 -96zM418 111c0 -67 14 -85 44 -97l-8 -24c-41 11 -63 36 -66 93c-37 -61 -92 -93 -166 -93c-99 0 -158 61 -158 154c0 108 82 167 206 167h114v57c0 88 -32 132 -129 132c-45 0 -91 -12 -142 -32l-9 28c52 22 100 35 153 35
c113 0 161 -55 161 -160v-260zM224 21c75 0 126 38 160 101v159h-107c-110 0 -177 -45 -177 -136c0 -79 48 -124 124 -124z" />
    <glyph glyph-name="aacute" unicode="&#xe1;" horiz-adv-x="531" 
d="M160 650l-12 23l180 96l16 -35zM418 111c0 -67 14 -85 44 -97l-8 -24c-41 11 -63 36 -66 93c-37 -61 -92 -93 -166 -93c-99 0 -158 61 -158 154c0 108 82 167 206 167h114v57c0 88 -32 132 -129 132c-45 0 -91 -12 -142 -32l-9 28c52 22 100 35 153 35
c113 0 161 -55 161 -160v-260zM224 21c75 0 126 38 160 101v159h-107c-110 0 -177 -45 -177 -136c0 -79 48 -124 124 -124z" />
    <glyph glyph-name="acircumflex" unicode="&#xe2;" horiz-adv-x="531" 
d="M142 650l-17 20l125 100h19l125 -100l-16 -20l-119 85zM418 111c0 -67 14 -85 44 -97l-8 -24c-41 11 -63 36 -66 93c-37 -61 -92 -93 -166 -93c-99 0 -158 61 -158 154c0 108 82 167 206 167h114v57c0 88 -32 132 -129 132c-45 0 -91 -12 -142 -32l-9 28
c52 22 100 35 153 35c113 0 161 -55 161 -160v-260zM224 21c75 0 126 38 160 101v159h-107c-110 0 -177 -45 -177 -136c0 -79 48 -124 124 -124z" />
    <glyph glyph-name="atilde" unicode="&#xe3;" horiz-adv-x="531" 
d="M197 717c-30 0 -39 -10 -59 -36l-21 12c21 34 45 54 80 54c40 0 78 -43 119 -43c20 0 35 11 57 43l21 -12c-22 -44 -49 -61 -75 -61c-56 0 -88 43 -122 43zM418 111c0 -67 14 -85 44 -97l-8 -24c-41 11 -63 36 -66 93c-37 -61 -92 -93 -166 -93c-99 0 -158 61 -158 154
c0 108 82 167 206 167h114v57c0 88 -32 132 -129 132c-45 0 -91 -12 -142 -32l-9 28c52 22 100 35 153 35c113 0 161 -55 161 -160v-260zM224 21c75 0 126 38 160 101v159h-107c-110 0 -177 -45 -177 -136c0 -79 48 -124 124 -124z" />
    <glyph glyph-name="adieresis" unicode="&#xe4;" horiz-adv-x="531" 
d="M168 669c-16 0 -27 12 -27 27s11 27 27 27c17 0 28 -12 28 -27s-11 -27 -28 -27zM343 669c-17 0 -28 12 -28 27s11 27 28 27s28 -12 28 -27s-11 -27 -28 -27zM418 111c0 -67 14 -85 44 -97l-8 -24c-41 11 -63 36 -66 93c-37 -61 -92 -93 -166 -93c-99 0 -158 61 -158 154
c0 108 82 167 206 167h114v57c0 88 -32 132 -129 132c-45 0 -91 -12 -142 -32l-9 28c52 22 100 35 153 35c113 0 161 -55 161 -160v-260zM224 21c75 0 126 38 160 101v159h-107c-110 0 -177 -45 -177 -136c0 -79 48 -124 124 -124z" />
    <glyph glyph-name="aring" unicode="&#xe5;" horiz-adv-x="531" 
d="M257 639c-52 0 -88 34 -88 85c0 52 36 86 88 86s88 -34 88 -86c0 -51 -36 -85 -88 -85zM257 784c-37 0 -57 -22 -57 -60c0 -37 20 -59 57 -59c36 0 57 22 57 59c0 38 -20 60 -57 60zM418 111c0 -67 14 -85 44 -97l-8 -24c-41 11 -63 36 -66 93c-37 -61 -92 -93 -166 -93
c-99 0 -158 61 -158 154c0 108 82 167 206 167h114v57c0 88 -32 132 -129 132c-45 0 -91 -12 -142 -32l-9 28c52 22 100 35 153 35c113 0 161 -55 161 -160v-260zM224 21c75 0 126 38 160 101v159h-107c-110 0 -177 -45 -177 -136c0 -79 48 -124 124 -124z" />
    <glyph glyph-name="ae" unicode="&#xe6;" horiz-adv-x="846" 
d="M781 283c0 -15 -1 -31 -2 -40h-359c6 -154 79 -222 178 -222c61 0 99 20 144 55l18 -24c-46 -39 -95 -62 -162 -62c-84 0 -149 41 -184 115c-58 -84 -115 -115 -191 -115c-100 0 -159 61 -159 154c0 108 82 167 207 167h113v57c0 88 -32 132 -128 132
c-46 0 -92 -12 -142 -32l-10 28c53 22 100 35 153 35c98 0 147 -42 158 -122c34 81 94 122 175 122c127 0 191 -99 191 -248zM747 272v23c0 121 -49 205 -156 205c-92 0 -166 -69 -171 -228h327zM224 21c73 0 123 35 178 114c-12 35 -18 75 -18 121v25h-107
c-110 0 -177 -45 -177 -136c0 -79 48 -124 124 -124z" />
    <glyph glyph-name="ccedilla" unicode="&#xe7;" horiz-adv-x="463" 
d="M292 -70c63 -4 91 -29 91 -70c0 -49 -42 -78 -92 -78c-32 0 -55 9 -72 20l14 25c13 -9 32 -15 58 -15c32 0 59 15 59 48c0 32 -27 46 -89 47l5 84c-119 9 -197 105 -197 266c0 169 86 274 215 274c57 0 97 -15 139 -51l-19 -23c-32 28 -68 42 -119 42
c-103 0 -180 -81 -180 -242c0 -157 76 -236 179 -236c52 0 91 18 126 48l18 -25c-36 -32 -82 -53 -136 -54v-60z" />
    <glyph glyph-name="egrave" unicode="&#xe8;" horiz-adv-x="530" 
d="M365 650l-184 84l16 35l180 -96zM466 283c0 -15 -1 -31 -2 -40h-360c7 -154 80 -222 179 -222c60 0 98 20 144 55l18 -24c-46 -39 -95 -62 -162 -62c-131 0 -214 98 -214 266c0 170 80 275 202 275c131 0 195 -99 195 -248zM432 272v23c0 121 -49 205 -159 205
c-89 0 -164 -69 -169 -228h328z" />
    <glyph glyph-name="eacute" unicode="&#xe9;" horiz-adv-x="530" 
d="M178 650l-12 23l180 96l16 -35zM466 283c0 -15 -1 -31 -2 -40h-360c7 -154 80 -222 179 -222c60 0 98 20 144 55l18 -24c-46 -39 -95 -62 -162 -62c-131 0 -214 98 -214 266c0 170 80 275 202 275c131 0 195 -99 195 -248zM432 272v23c0 121 -49 205 -159 205
c-89 0 -164 -69 -169 -228h328z" />
    <glyph glyph-name="ecircumflex" unicode="&#xea;" horiz-adv-x="530" 
d="M160 650l-17 20l125 100h19l125 -100l-16 -20l-119 85zM466 283c0 -15 -1 -31 -2 -40h-360c7 -154 80 -222 179 -222c60 0 98 20 144 55l18 -24c-46 -39 -95 -62 -162 -62c-131 0 -214 98 -214 266c0 170 80 275 202 275c131 0 195 -99 195 -248zM432 272v23
c0 121 -49 205 -159 205c-89 0 -164 -69 -169 -228h328z" />
    <glyph glyph-name="edieresis" unicode="&#xeb;" horiz-adv-x="530" 
d="M186 669c-16 0 -27 12 -27 27s11 27 27 27c17 0 28 -12 28 -27s-11 -27 -28 -27zM361 669c-17 0 -28 12 -28 27s11 27 28 27s28 -12 28 -27s-11 -27 -28 -27zM466 283c0 -15 -1 -31 -2 -40h-360c7 -154 80 -222 179 -222c60 0 98 20 144 55l18 -24
c-46 -39 -95 -62 -162 -62c-131 0 -214 98 -214 266c0 170 80 275 202 275c131 0 195 -99 195 -248zM432 272v23c0 121 -49 205 -159 205c-89 0 -164 -69 -169 -228h328z" />
    <glyph glyph-name="igrave" unicode="&#xec;" horiz-adv-x="261" 
d="M234 673l-12 -23l-184 84l16 35zM148 0h-34v520h34v-520z" />
    <glyph glyph-name="iacute" unicode="&#xed;" horiz-adv-x="261" 
d="M218 734l-184 -84l-12 23l180 96zM148 0h-34v520h34v-520z" />
    <glyph glyph-name="icircumflex" unicode="&#xee;" horiz-adv-x="261" 
d="M-1 670l125 100h19l125 -100l-16 -20l-119 85l-117 -85zM148 0h-34v520h34v-520z" />
    <glyph glyph-name="idieresis" unicode="&#xef;" horiz-adv-x="261" 
d="M42 723c17 0 28 -12 28 -27s-11 -27 -28 -27c-16 0 -27 12 -27 27s11 27 27 27zM217 723c17 0 28 -12 28 -27s-11 -27 -28 -27s-28 12 -28 27s11 27 28 27zM148 0h-34v520h34v-520z" />
    <glyph glyph-name="eth" unicode="&#xf0;" horiz-adv-x="555" 
d="M313 665c99 -79 159 -186 159 -375c0 -205 -82 -300 -202 -300c-129 0 -201 94 -201 241c0 122 68 233 191 233c72 0 127 -35 173 -91c-12 112 -56 200 -142 269l-81 -81l-27 10l85 87c-35 22 -83 44 -129 53l8 29c48 -10 96 -30 142 -59l69 71l22 -19zM270 21
c105 0 167 93 167 272c0 20 -1 32 -2 43c-48 60 -106 97 -172 97c-101 0 -158 -89 -158 -203c0 -131 60 -209 165 -209z" />
    <glyph glyph-name="ntilde" unicode="&#xf1;" horiz-adv-x="582" 
d="M238 717c-30 0 -39 -10 -59 -36l-21 12c21 34 45 54 80 54c40 0 78 -43 119 -43c20 0 35 11 57 43l21 -12c-22 -44 -49 -61 -75 -61c-56 0 -88 43 -122 43zM333 531c94 0 141 -59 141 -160v-371h-34v366c0 92 -37 135 -110 135c-80 0 -134 -49 -182 -119v-382h-34v520h29
l4 -97c46 64 105 108 186 108z" />
    <glyph glyph-name="ograve" unicode="&#xf2;" horiz-adv-x="562" 
d="M385 673l-12 -23l-184 84l16 35zM282 531c130 0 211 -95 211 -269c0 -172 -83 -272 -212 -272c-132 0 -212 101 -212 269c0 172 84 272 213 272zM282 500c-108 0 -177 -82 -177 -241c0 -153 66 -238 176 -238c108 0 177 83 177 241c0 155 -66 238 -176 238z" />
    <glyph glyph-name="oacute" unicode="&#xf3;" horiz-adv-x="562" 
d="M369 734l-184 -84l-12 23l180 96zM282 531c130 0 211 -95 211 -269c0 -172 -83 -272 -212 -272c-132 0 -212 101 -212 269c0 172 84 272 213 272zM282 500c-108 0 -177 -82 -177 -241c0 -153 66 -238 176 -238c108 0 177 83 177 241c0 155 -66 238 -176 238z" />
    <glyph glyph-name="ocircumflex" unicode="&#xf4;" horiz-adv-x="562" 
d="M150 670l125 100h19l125 -100l-16 -20l-119 85l-117 -85zM282 531c130 0 211 -95 211 -269c0 -172 -83 -272 -212 -272c-132 0 -212 101 -212 269c0 172 84 272 213 272zM282 500c-108 0 -177 -82 -177 -241c0 -153 66 -238 176 -238c108 0 177 83 177 241
c0 155 -66 238 -176 238z" />
    <glyph glyph-name="otilde" unicode="&#xf5;" horiz-adv-x="562" 
d="M345 674c-56 0 -88 43 -122 43c-30 0 -39 -10 -59 -36l-21 12c21 34 45 54 80 54c40 0 78 -43 119 -43c20 0 35 11 57 43l21 -12c-22 -44 -49 -61 -75 -61zM282 531c130 0 211 -95 211 -269c0 -172 -83 -272 -212 -272c-132 0 -212 101 -212 269c0 172 84 272 213 272z
M282 500c-108 0 -177 -82 -177 -241c0 -153 66 -238 176 -238c108 0 177 83 177 241c0 155 -66 238 -176 238z" />
    <glyph glyph-name="odieresis" unicode="&#xf6;" horiz-adv-x="562" 
d="M193 723c17 0 28 -12 28 -27s-11 -27 -28 -27c-16 0 -27 12 -27 27s11 27 27 27zM368 723c17 0 28 -12 28 -27s-11 -27 -28 -27s-28 12 -28 27s11 27 28 27zM282 531c130 0 211 -95 211 -269c0 -172 -83 -272 -212 -272c-132 0 -212 101 -212 269c0 172 84 272 213 272z
M282 500c-108 0 -177 -82 -177 -241c0 -153 66 -238 176 -238c108 0 177 83 177 241c0 155 -66 238 -176 238z" />
    <glyph glyph-name="divide" unicode="&#xf7;" horiz-adv-x="489" 
d="M244 575c21 0 33 -14 33 -33c0 -17 -12 -31 -33 -31c-19 0 -32 14 -32 31c0 19 13 33 32 33zM74 347h341v-32h-341v32zM244 151c21 0 33 -15 33 -33c0 -17 -12 -32 -33 -32c-19 0 -32 15 -32 32c0 18 13 33 32 33z" />
    <glyph glyph-name="oslash" unicode="&#xf8;" horiz-adv-x="562" 
d="M381 508c71 -38 112 -122 112 -246c0 -172 -83 -272 -212 -272c-25 0 -48 4 -69 11l-43 -123l-30 9l44 126c-73 39 -114 125 -114 246c0 172 84 272 213 272c25 0 49 -4 70 -11l40 123l30 -9zM105 259c0 -109 33 -183 91 -217l148 448c-19 7 -39 10 -62 10
c-108 0 -177 -82 -177 -241zM281 21c108 0 177 83 177 241c0 109 -32 182 -90 216l-148 -447c18 -7 39 -10 61 -10z" />
    <glyph glyph-name="ugrave" unicode="&#xf9;" horiz-adv-x="577" 
d="M389 673l-12 -23l-184 84l16 35zM464 0h-30l-1 101c-34 -61 -91 -111 -176 -111c-94 0 -148 56 -148 159v371h34v-368c0 -91 42 -131 119 -131s128 49 168 118v381h34v-520z" />
    <glyph glyph-name="uacute" unicode="&#xfa;" horiz-adv-x="577" 
d="M374 734l-184 -84l-12 23l180 96zM464 0h-30l-1 101c-34 -61 -91 -111 -176 -111c-94 0 -148 56 -148 159v371h34v-368c0 -91 42 -131 119 -131s128 49 168 118v381h34v-520z" />
    <glyph glyph-name="ucircumflex" unicode="&#xfb;" horiz-adv-x="577" 
d="M155 670l125 100h19l125 -100l-16 -20l-119 85l-117 -85zM464 0h-30l-1 101c-34 -61 -91 -111 -176 -111c-94 0 -148 56 -148 159v371h34v-368c0 -91 42 -131 119 -131s128 49 168 118v381h34v-520z" />
    <glyph glyph-name="udieresis" unicode="&#xfc;" horiz-adv-x="577" 
d="M198 723c17 0 28 -12 28 -27s-11 -27 -28 -27c-16 0 -27 12 -27 27s11 27 27 27zM373 723c17 0 28 -12 28 -27s-11 -27 -28 -27s-28 12 -28 27s11 27 28 27zM464 0h-30l-1 101c-34 -61 -91 -111 -176 -111c-94 0 -148 56 -148 159v371h34v-368c0 -91 42 -131 119 -131
s128 49 168 118v381h34v-520z" />
    <glyph glyph-name="yacute" unicode="&#xfd;" horiz-adv-x="451" 
d="M305 734l-184 -84l-12 23l180 96zM249 -2c-40 -115 -77 -165 -191 -196l-4 27c104 30 127 72 163 171h-13l-185 520h38l170 -494l167 494h37z" />
    <glyph glyph-name="thorn" unicode="&#xfe;" horiz-adv-x="572" 
d="M311 531c121 0 186 -95 186 -267c0 -169 -67 -274 -193 -274c-72 0 -125 37 -156 81v-264l-34 -7v934l34 5v-296c38 52 91 88 163 88zM302 21c104 0 160 85 160 243c0 157 -53 236 -153 236c-74 0 -119 -39 -161 -96v-293c36 -53 86 -90 154 -90z" />
    <glyph glyph-name="ydieresis" unicode="&#xff;" horiz-adv-x="451" 
d="M130 723c17 0 28 -12 28 -27s-11 -27 -28 -27c-16 0 -27 12 -27 27s11 27 27 27zM305 723c17 0 28 -12 28 -27s-11 -27 -28 -27s-28 12 -28 27s11 27 28 27zM249 -2c-40 -115 -77 -165 -191 -196l-4 27c104 30 127 72 163 171h-13l-185 520h38l170 -494l167 494h37z" />
    <glyph glyph-name="Amacron" unicode="&#x100;" horiz-adv-x="559" 
d="M389 808h-218v32h218v-32zM432 197h-307l-66 -197h-35l234 682h43l234 -682h-37zM421 229l-142 425l-143 -425h285z" />
    <glyph glyph-name="amacron" unicode="&#x101;" horiz-adv-x="531" 
d="M365 682h-218v32h218v-32zM418 111c0 -67 14 -85 44 -97l-8 -24c-41 11 -63 36 -66 93c-37 -61 -92 -93 -166 -93c-99 0 -158 61 -158 154c0 108 82 167 206 167h114v57c0 88 -32 132 -129 132c-45 0 -91 -12 -142 -32l-9 28c52 22 100 35 153 35c113 0 161 -55 161 -160
v-260zM224 21c75 0 126 38 160 101v159h-107c-110 0 -177 -45 -177 -136c0 -79 48 -124 124 -124z" />
    <glyph glyph-name="Abreve" unicode="&#x102;" horiz-adv-x="559" 
d="M279 769c-61 0 -106 39 -115 85l25 5c12 -34 43 -58 90 -58s79 24 91 58l25 -5c-9 -46 -54 -85 -116 -85zM432 197h-307l-66 -197h-35l234 682h43l234 -682h-37zM421 229l-142 425l-143 -425h285z" />
    <glyph glyph-name="abreve" unicode="&#x103;" horiz-adv-x="531" 
d="M256 660c-61 0 -106 39 -115 94l25 6c12 -44 43 -69 90 -69s79 25 91 69l25 -6c-9 -55 -54 -94 -116 -94zM418 111c0 -67 14 -85 44 -97l-8 -24c-41 11 -63 36 -66 93c-37 -61 -92 -93 -166 -93c-99 0 -158 61 -158 154c0 108 82 167 206 167h114v57
c0 88 -32 132 -129 132c-45 0 -91 -12 -142 -32l-9 28c52 22 100 35 153 35c113 0 161 -55 161 -160v-260zM224 21c75 0 126 38 160 101v159h-107c-110 0 -177 -45 -177 -136c0 -79 48 -124 124 -124z" />
    <glyph glyph-name="Aogonek" unicode="&#x104;" horiz-adv-x="559" 
d="M412 -121c0 -32 23 -54 70 -54c18 0 32 2 53 6l-3 -33c-20 -4 -35 -6 -55 -6c-70 0 -101 38 -101 85c0 56 41 95 119 131l-63 189h-307l-66 -197h-35l234 682h43l234 -682h-2c-79 -37 -121 -66 -121 -121zM421 229l-142 425l-143 -425h285z" />
    <glyph glyph-name="aogonek" unicode="&#x105;" horiz-adv-x="531" 
d="M333 -131c0 -32 23 -54 70 -54c18 0 32 2 53 6l-3 -33c-20 -4 -35 -6 -55 -6c-70 0 -101 38 -101 85c0 58 44 98 129 135c-23 14 -36 39 -38 81c-37 -61 -92 -93 -166 -93c-99 0 -158 61 -158 154c0 108 82 167 206 167h114v57c0 88 -32 132 -129 132
c-45 0 -91 -12 -142 -32l-9 28c52 22 100 35 153 35c113 0 161 -55 161 -160v-260c0 -67 14 -85 44 -97l-8 -24c-79 -37 -121 -66 -121 -121zM224 21c75 0 126 38 160 101v159h-107c-110 0 -177 -45 -177 -136c0 -79 48 -124 124 -124z" />
    <glyph glyph-name="Cacute" unicode="&#x106;" horiz-adv-x="543" 
d="M446 837l-186 -76l-10 22l178 89zM345 693c76 0 121 -23 165 -60l-19 -25c-47 36 -83 52 -144 52c-130 0 -237 -93 -237 -319c0 -214 104 -318 233 -318c75 0 114 24 155 58l20 -25c-43 -38 -97 -66 -176 -66c-153 0 -268 122 -268 351c0 236 121 352 271 352z" />
    <glyph glyph-name="cacute" unicode="&#x107;" horiz-adv-x="463" 
d="M370 734l-184 -84l-12 23l180 96zM284 531c57 0 97 -15 139 -51l-19 -23c-32 28 -68 42 -119 42c-103 0 -180 -81 -180 -242c0 -157 76 -236 179 -236c52 0 91 18 126 48l18 -25c-37 -33 -85 -54 -142 -54c-130 0 -217 97 -217 267c0 169 86 274 215 274z" />
    <glyph glyph-name="Ccircumflex" unicode="&#x108;" horiz-adv-x="543" 
d="M342 844l-118 -79l-17 19l126 95h19l124 -95l-16 -19zM345 693c76 0 121 -23 165 -60l-19 -25c-47 36 -83 52 -144 52c-130 0 -237 -93 -237 -319c0 -214 104 -318 233 -318c75 0 114 24 155 58l20 -25c-43 -38 -97 -66 -176 -66c-153 0 -268 122 -268 351
c0 236 121 352 271 352z" />
    <glyph glyph-name="ccircumflex" unicode="&#x109;" horiz-adv-x="463" 
d="M151 670l125 100h19l125 -100l-16 -20l-119 85l-117 -85zM284 531c57 0 97 -15 139 -51l-19 -23c-32 28 -68 42 -119 42c-103 0 -180 -81 -180 -242c0 -157 76 -236 179 -236c52 0 91 18 126 48l18 -25c-37 -33 -85 -54 -142 -54c-130 0 -217 97 -217 267
c0 169 86 274 215 274z" />
    <glyph glyph-name="Cdotaccent" unicode="&#x10a;" horiz-adv-x="543" 
d="M342 860c19 0 29 -13 29 -27c0 -15 -10 -28 -29 -28c-17 0 -28 13 -28 28c0 14 11 27 28 27zM345 693c76 0 121 -23 165 -60l-19 -25c-47 36 -83 52 -144 52c-130 0 -237 -93 -237 -319c0 -214 104 -318 233 -318c75 0 114 24 155 58l20 -25c-43 -38 -97 -66 -176 -66
c-153 0 -268 122 -268 351c0 236 121 352 271 352z" />
    <glyph glyph-name="cdotaccent" unicode="&#x10b;" horiz-adv-x="463" 
d="M282 734c19 0 29 -13 29 -27c0 -15 -10 -28 -29 -28c-17 0 -28 13 -28 28c0 14 11 27 28 27zM284 531c57 0 97 -15 139 -51l-19 -23c-32 28 -68 42 -119 42c-103 0 -180 -81 -180 -242c0 -157 76 -236 179 -236c52 0 91 18 126 48l18 -25c-37 -33 -85 -54 -142 -54
c-130 0 -217 97 -217 267c0 169 86 274 215 274z" />
    <glyph glyph-name="Ccaron" unicode="&#x10c;" horiz-adv-x="543" 
d="M481 853l-124 -95h-19l-126 95l17 20l118 -80l118 80zM345 693c76 0 121 -23 165 -60l-19 -25c-47 36 -83 52 -144 52c-130 0 -237 -93 -237 -319c0 -214 104 -318 233 -318c75 0 114 24 155 58l20 -25c-43 -38 -97 -66 -176 -66c-153 0 -268 122 -268 351
c0 236 121 352 271 352z" />
    <glyph glyph-name="ccaron" unicode="&#x10d;" horiz-adv-x="463" 
d="M421 741l-124 -101h-19l-126 101l17 20l118 -85l118 85zM284 531c57 0 97 -15 139 -51l-19 -23c-32 28 -68 42 -119 42c-103 0 -180 -81 -180 -242c0 -157 76 -236 179 -236c52 0 91 18 126 48l18 -25c-37 -33 -85 -54 -142 -54c-130 0 -217 97 -217 267
c0 169 86 274 215 274z" />
    <glyph glyph-name="Dcaron" unicode="&#x10e;" horiz-adv-x="623" 
d="M436 853l-124 -95h-19l-126 95l17 20l118 -80l118 80zM249 682c148 0 301 -55 301 -334c0 -287 -162 -348 -297 -348h-134v682h130zM154 650v-618h100c126 0 259 57 259 316c0 264 -138 302 -266 302h-93z" />
    <glyph glyph-name="dcaron" unicode="&#x10f;" horiz-adv-x="576" 
d="M429 739l34 -5v-734h-30l-4 86c-27 -51 -77 -96 -161 -96c-117 0 -194 100 -194 268c0 161 76 273 204 273c79 0 123 -40 151 -77v285zM587 734l-31 -150l-23 3l18 151zM270 21c77 0 123 40 159 111v281c-30 47 -76 87 -148 87c-101 0 -172 -89 -171 -242
c0 -151 62 -237 160 -237z" />
    <glyph glyph-name="Dcroat" unicode="&#x110;" horiz-adv-x="620" 
d="M246 682c148 0 301 -55 301 -334c0 -287 -162 -348 -297 -348h-134v338h-91v30h91v314h130zM251 32c126 0 259 57 259 316c0 264 -138 302 -266 302h-93v-282h188v-30h-188v-306h100z" />
    <glyph glyph-name="dcroat" unicode="&#x111;" horiz-adv-x="582" 
d="M538 654v-30h-75v-624h-30l-4 86c-27 -51 -77 -96 -161 -96c-117 0 -194 100 -194 268c0 161 76 273 204 273c79 0 123 -40 151 -77v170h-166l-5 30h171v85l34 -5v-80h75zM270 21c77 0 123 40 159 111v281c-30 47 -76 87 -148 87c-101 0 -172 -89 -171 -242
c0 -151 62 -237 160 -237z" />
    <glyph glyph-name="Emacron" unicode="&#x112;" horiz-adv-x="496" 
d="M179 808v32h218v-32h-218zM444 650h-290v-276h251v-31h-251v-311h301v-32h-336v682h330z" />
    <glyph glyph-name="emacron" unicode="&#x113;" horiz-adv-x="530" 
d="M383 682h-218v32h218v-32zM466 283c0 -15 -1 -31 -2 -40h-360c7 -154 80 -222 179 -222c60 0 98 20 144 55l18 -24c-46 -39 -95 -62 -162 -62c-131 0 -214 98 -214 266c0 170 80 275 202 275c131 0 195 -99 195 -248zM432 272v23c0 121 -49 205 -159 205
c-89 0 -164 -69 -169 -228h328z" />
    <glyph glyph-name="Ebreve" unicode="&#x114;" horiz-adv-x="496" 
d="M288 769c-61 0 -106 39 -115 85l25 5c12 -34 43 -58 90 -58s79 24 91 58l25 -5c-9 -46 -54 -85 -116 -85zM444 650h-290v-276h251v-31h-251v-311h301v-32h-336v682h330z" />
    <glyph glyph-name="ebreve" unicode="&#x115;" horiz-adv-x="530" 
d="M274 660c-61 0 -106 39 -115 94l25 6c12 -44 43 -69 90 -69s79 25 91 69l25 -6c-9 -55 -54 -94 -116 -94zM466 283c0 -15 -1 -31 -2 -40h-360c7 -154 80 -222 179 -222c60 0 98 20 144 55l18 -24c-46 -39 -95 -62 -162 -62c-131 0 -214 98 -214 266c0 170 80 275 202 275
c131 0 195 -99 195 -248zM432 272v23c0 121 -49 205 -159 205c-89 0 -164 -69 -169 -228h328z" />
    <glyph glyph-name="Edotaccent" unicode="&#x116;" horiz-adv-x="496" 
d="M288 860c19 0 29 -13 29 -27c0 -15 -10 -28 -29 -28c-17 0 -28 13 -28 28c0 14 11 27 28 27zM444 650h-290v-276h251v-31h-251v-311h301v-32h-336v682h330z" />
    <glyph glyph-name="edotaccent" unicode="&#x117;" horiz-adv-x="530" 
d="M274 679c-17 0 -28 13 -28 28c0 14 11 27 28 27c19 0 29 -13 29 -27c0 -15 -10 -28 -29 -28zM466 283c0 -15 -1 -31 -2 -40h-360c7 -154 80 -222 179 -222c60 0 98 20 144 55l18 -24c-46 -39 -95 -62 -162 -62c-131 0 -214 98 -214 266c0 170 80 275 202 275
c131 0 195 -99 195 -248zM432 272v23c0 121 -49 205 -159 205c-89 0 -164 -69 -169 -228h328z" />
    <glyph glyph-name="Eogonek" unicode="&#x118;" horiz-adv-x="496" 
d="M429 0c-79 -37 -121 -66 -121 -121c0 -32 23 -54 70 -54c18 0 32 2 53 6l-3 -33c-20 -4 -35 -6 -55 -6c-70 0 -101 38 -101 85c0 52 35 89 103 123h-256v682h330l-5 -32h-290v-276h251v-31h-251v-311h301v-32h-26z" />
    <glyph glyph-name="eogonek" unicode="&#x119;" horiz-adv-x="530" 
d="M466 283c0 -15 -1 -31 -2 -40h-360c7 -154 80 -222 179 -222c60 0 98 20 144 55l18 -24c-26 -22 -52 -39 -83 -49c-76 -36 -116 -65 -116 -119c0 -32 23 -54 70 -54c18 0 32 2 53 6l-3 -33c-20 -4 -35 -6 -55 -6c-70 0 -101 38 -101 85c0 45 27 79 82 108h-9
c-131 0 -214 98 -214 266c0 170 80 275 202 275c131 0 195 -99 195 -248zM432 272v23c0 121 -49 205 -159 205c-89 0 -164 -69 -169 -228h328z" />
    <glyph glyph-name="Ecaron" unicode="&#x11a;" horiz-adv-x="496" 
d="M427 853l-124 -95h-19l-126 95l17 20l118 -80l118 80zM444 650h-290v-276h251v-31h-251v-311h301v-32h-336v682h330z" />
    <glyph glyph-name="ecaron" unicode="&#x11b;" horiz-adv-x="530" 
d="M270 640l-126 101l17 20l118 -85l118 85l16 -20l-124 -101h-19zM466 283c0 -15 -1 -31 -2 -40h-360c7 -154 80 -222 179 -222c60 0 98 20 144 55l18 -24c-46 -39 -95 -62 -162 -62c-131 0 -214 98 -214 266c0 170 80 275 202 275c131 0 195 -99 195 -248zM432 272v23
c0 121 -49 205 -159 205c-89 0 -164 -69 -169 -228h328z" />
    <glyph glyph-name="Gcircumflex" unicode="&#x11c;" horiz-adv-x="609" 
d="M349 844l-118 -79l-17 19l126 95h19l124 -95l-16 -19zM348 693c75 0 124 -21 177 -62l-21 -24c-48 37 -93 53 -156 53c-114 0 -238 -88 -238 -315c0 -219 98 -323 242 -323c64 0 108 14 153 39v267h-142l-4 32h181v-318c-57 -34 -123 -52 -188 -52
c-164 0 -278 119 -278 355c0 238 140 348 274 348z" />
    <glyph glyph-name="gcircumflex" unicode="&#x11d;" horiz-adv-x="491" 
d="M117 670l125 100h19l125 -100l-16 -20l-119 85l-117 -85zM477 519c-30 -8 -73 -13 -138 -14c50 -25 86 -69 86 -149c0 -101 -68 -168 -181 -168c-26 0 -49 4 -69 11c-30 -17 -49 -40 -49 -69c0 -35 24 -61 93 -61h86c100 0 158 -51 158 -125c0 -89 -67 -144 -212 -144
c-149 0 -212 41 -212 143h33c2 -82 47 -112 179 -112c127 0 177 43 177 111c0 60 -46 96 -126 96h-86c-82 0 -125 38 -125 86c0 36 23 65 58 86c-59 30 -88 78 -88 149c0 102 70 172 184 172c146 -2 177 8 221 24zM245 501c-101 0 -149 -59 -149 -142
c0 -94 63 -142 148 -142c93 0 146 51 146 139c0 85 -46 145 -145 145z" />
    <glyph glyph-name="Gbreve" unicode="&#x11e;" horiz-adv-x="609" 
d="M349 769c-61 0 -106 39 -115 85l25 5c12 -34 43 -58 90 -58s79 24 91 58l25 -5c-9 -46 -54 -85 -116 -85zM348 693c75 0 124 -21 177 -62l-21 -24c-48 37 -93 53 -156 53c-114 0 -238 -88 -238 -315c0 -219 98 -323 242 -323c64 0 108 14 153 39v267h-142l-4 32h181v-318
c-57 -34 -123 -52 -188 -52c-164 0 -278 119 -278 355c0 238 140 348 274 348z" />
    <glyph glyph-name="gbreve" unicode="&#x11f;" horiz-adv-x="491" 
d="M248 660c-61 0 -106 39 -115 94l25 6c12 -44 43 -69 90 -69s79 25 91 69l25 -6c-9 -55 -54 -94 -116 -94zM477 519c-30 -8 -73 -13 -138 -14c50 -25 86 -69 86 -149c0 -101 -68 -168 -181 -168c-26 0 -49 4 -69 11c-30 -17 -49 -40 -49 -69c0 -35 24 -61 93 -61h86
c100 0 158 -51 158 -125c0 -89 -67 -144 -212 -144c-149 0 -212 41 -212 143h33c2 -82 47 -112 179 -112c127 0 177 43 177 111c0 60 -46 96 -126 96h-86c-82 0 -125 38 -125 86c0 36 23 65 58 86c-59 30 -88 78 -88 149c0 102 70 172 184 172c146 -2 177 8 221 24zM245 501
c-101 0 -149 -59 -149 -142c0 -94 63 -142 148 -142c93 0 146 51 146 139c0 85 -46 145 -145 145z" />
    <glyph glyph-name="Gdotaccent" unicode="&#x120;" horiz-adv-x="609" 
d="M349 860c19 0 29 -13 29 -27c0 -15 -10 -28 -29 -28c-17 0 -28 13 -28 28c0 14 11 27 28 27zM348 693c75 0 124 -21 177 -62l-21 -24c-48 37 -93 53 -156 53c-114 0 -238 -88 -238 -315c0 -219 98 -323 242 -323c64 0 108 14 153 39v267h-142l-4 32h181v-318
c-57 -34 -123 -52 -188 -52c-164 0 -278 119 -278 355c0 238 140 348 274 348z" />
    <glyph glyph-name="gdotaccent" unicode="&#x121;" horiz-adv-x="491" 
d="M248 734c19 0 29 -13 29 -27c0 -15 -10 -28 -29 -28c-17 0 -28 13 -28 28c0 14 11 27 28 27zM477 519c-30 -8 -73 -13 -138 -14c50 -25 86 -69 86 -149c0 -101 -68 -168 -181 -168c-26 0 -49 4 -69 11c-30 -17 -49 -40 -49 -69c0 -35 24 -61 93 -61h86
c100 0 158 -51 158 -125c0 -89 -67 -144 -212 -144c-149 0 -212 41 -212 143h33c2 -82 47 -112 179 -112c127 0 177 43 177 111c0 60 -46 96 -126 96h-86c-82 0 -125 38 -125 86c0 36 23 65 58 86c-59 30 -88 78 -88 149c0 102 70 172 184 172c146 -2 177 8 221 24zM245 501
c-101 0 -149 -59 -149 -142c0 -94 63 -142 148 -142c93 0 146 51 146 139c0 85 -46 145 -145 145z" />
    <glyph glyph-name="Gcommaaccent" unicode="&#x122;" horiz-adv-x="609" 
d="M348 693c75 0 124 -21 177 -62l-21 -24c-48 37 -93 53 -156 53c-114 0 -238 -88 -238 -315c0 -219 98 -323 242 -323c64 0 108 14 153 39v267h-142l-4 32h181v-318c-57 -34 -123 -52 -188 -52c-164 0 -278 119 -278 355c0 238 140 348 274 348zM335 -90
c22 0 34 -15 34 -33c0 -16 -5 -26 -19 -58l-39 -86h-24l34 113c-16 6 -20 15 -20 31c0 18 13 33 34 33z" />
    <glyph glyph-name="gcommaaccent" unicode="&#x123;" horiz-adv-x="491" 
d="M249 610c-22 0 -34 15 -34 33c0 16 5 26 19 58l39 86h24l-34 -113c16 -6 20 -15 20 -31c0 -18 -13 -33 -34 -33zM477 519c-30 -8 -73 -13 -138 -14c50 -25 86 -69 86 -149c0 -101 -68 -168 -181 -168c-26 0 -49 4 -69 11c-30 -17 -49 -40 -49 -69c0 -35 24 -61 93 -61h86
c100 0 158 -51 158 -125c0 -89 -67 -144 -212 -144c-149 0 -212 41 -212 143h33c2 -82 47 -112 179 -112c127 0 177 43 177 111c0 60 -46 96 -126 96h-86c-82 0 -125 38 -125 86c0 36 23 65 58 86c-59 30 -88 78 -88 149c0 102 70 172 184 172c146 -2 177 8 221 24zM245 501
c-101 0 -149 -59 -149 -142c0 -94 63 -142 148 -142c93 0 146 51 146 139c0 85 -46 145 -145 145z" />
    <glyph glyph-name="Hcircumflex" unicode="&#x124;" horiz-adv-x="663" 
d="M330 844l-118 -79l-17 19l126 95h19l124 -95l-16 -19zM509 344h-355v-344h-35v682h35v-306h355v306h35v-682h-35v344z" />
    <glyph glyph-name="hcircumflex" unicode="&#x125;" horiz-adv-x="582" 
d="M178 817l-17 19l126 95h19l124 -95l-16 -19l-118 79zM333 531c93 0 141 -61 141 -160v-371h-34v366c0 90 -37 135 -110 135c-80 0 -134 -49 -182 -119v-382h-34v734l34 6v-317c46 65 105 108 185 108z" />
    <glyph glyph-name="Hbar" unicode="&#x126;" horiz-adv-x="654" 
d="M601 517h-53v-517h-35v344h-355v-344h-35v517h-69v27h69v138h35v-138h355v138h35v-138h53v-27zM513 517h-355v-141h355v141z" />
    <glyph glyph-name="hbar" unicode="&#x127;" horiz-adv-x="587" 
d="M338 531c93 0 141 -61 141 -160v-371h-34v366c0 90 -37 135 -110 135c-80 0 -134 -49 -182 -119v-382h-34v624h-75v30h75v80l34 6v-86h180l-6 -30h-174v-201c46 65 105 108 185 108z" />
    <glyph glyph-name="Itilde" unicode="&#x128;" horiz-adv-x="273" 
d="M199 800c-56 0 -88 43 -122 43c-30 0 -39 -10 -59 -36l-21 12c21 34 45 54 80 54c40 0 78 -43 119 -43c20 0 35 11 57 43l21 -12c-22 -44 -49 -61 -75 -61zM154 0h-35v682h35v-682z" />
    <glyph glyph-name="itilde" unicode="&#x129;" horiz-adv-x="261" 
d="M194 674c-56 0 -88 43 -122 43c-30 0 -39 -10 -59 -36l-21 12c21 34 45 54 80 54c40 0 78 -43 119 -43c20 0 35 11 57 43l21 -12c-22 -44 -49 -61 -75 -61zM148 0h-34v520h34v-520z" />
    <glyph glyph-name="Imacron" unicode="&#x12a;" horiz-adv-x="273" 
d="M27 808v32h218v-32h-218zM154 0h-35v682h35v-682z" />
    <glyph glyph-name="imacron" unicode="&#x12b;" horiz-adv-x="261" 
d="M22 682v32h218v-32h-218zM148 0h-34v520h34v-520z" />
    <glyph glyph-name="Ibreve" unicode="&#x12c;" horiz-adv-x="273" 
d="M135 769c-61 0 -106 39 -115 85l25 5c12 -34 43 -58 90 -58s79 24 91 58l25 -5c-9 -46 -54 -85 -116 -85zM154 0h-35v682h35v-682z" />
    <glyph glyph-name="ibreve" unicode="&#x12d;" horiz-adv-x="261" 
d="M130 660c-61 0 -106 39 -115 94l25 6c12 -44 43 -69 90 -69s79 25 91 69l25 -6c-9 -55 -54 -94 -116 -94zM148 0h-34v520h34v-520z" />
    <glyph glyph-name="Iogonek" unicode="&#x12e;" horiz-adv-x="273" 
d="M103 -175c18 0 32 2 53 6l-3 -33c-20 -4 -35 -6 -55 -6c-70 0 -101 38 -101 85c0 57 42 96 122 132v673h35v-682c-79 -37 -121 -66 -121 -121c0 -32 23 -54 70 -54z" />
    <glyph glyph-name="iogonek" unicode="&#x12f;" horiz-adv-x="261" 
d="M130 734c19 0 29 -13 29 -27c0 -15 -10 -28 -29 -28c-17 0 -28 13 -28 28c0 14 11 27 28 27zM27 -121c0 -32 23 -54 70 -54c18 0 32 2 53 6l-3 -33c-20 -4 -35 -6 -55 -6c-70 0 -101 38 -101 85c0 57 42 96 123 132v511h34v-520c-79 -37 -121 -66 -121 -121z" />
    <glyph glyph-name="Idotaccent" unicode="&#x130;" horiz-adv-x="273" 
d="M135 860c19 0 29 -13 29 -27c0 -15 -10 -28 -29 -28c-17 0 -28 13 -28 28c0 14 11 27 28 27zM154 0h-35v682h35v-682z" />
    <glyph glyph-name="dotlessi" unicode="&#x131;" horiz-adv-x="261" 
d="M148 0h-34v520h34v-520z" />
    <glyph glyph-name="IJ" unicode="&#x132;" horiz-adv-x="553" 
d="M154 0h-35v682h35v-682zM441 89c0 -106 -27 -146 -139 -195l-10 26c91 43 114 78 114 171v591h35v-593z" />
    <glyph glyph-name="ij" unicode="&#x133;" horiz-adv-x="523" 
d="M130 734c19 0 29 -13 29 -27c0 -15 -10 -28 -29 -28c-17 0 -28 13 -28 28c0 14 11 27 28 27zM391 734c19 0 29 -13 29 -27c0 -15 -10 -28 -29 -28c-17 0 -28 13 -28 28c0 14 11 27 28 27zM148 0h-34v520h34v-520zM410 10c0 -134 -40 -166 -122 -207l-10 25
c69 36 98 65 98 182v510h34v-510z" />
    <glyph glyph-name="Jcircumflex" unicode="&#x134;" horiz-adv-x="281" 
d="M148 844l-118 -79l-17 19l126 95h19l124 -95l-16 -19zM168 89c0 -106 -27 -146 -139 -195l-10 26c91 43 114 78 114 171v591h35v-593z" />
    <glyph glyph-name="jcircumflex" unicode="&#x135;" horiz-adv-x="262" 
d="M-1 670l125 100h19l125 -100l-16 -20l-119 85l-117 -85zM149 10c0 -134 -40 -166 -122 -207l-10 25c69 36 98 65 98 182v510h34v-510z" />
    <glyph glyph-name="Kcommaaccent" unicode="&#x136;" horiz-adv-x="518" 
d="M154 0h-35v682h35v-682zM201 367l317 -367h-43l-318 367l303 315h42zM299 -90c22 0 34 -15 34 -33c0 -16 -5 -26 -19 -58l-39 -86h-24l34 113c-16 6 -20 15 -20 31c0 18 13 33 34 33z" />
    <glyph glyph-name="kcommaaccent" unicode="&#x137;" horiz-adv-x="472" 
d="M148 0h-34v734l34 5v-739zM196 286l262 -286h-42l-262 284l238 236h42zM267 -90c22 0 34 -15 34 -33c0 -16 -5 -26 -19 -58l-39 -86h-24l34 113c-16 6 -20 15 -20 31c0 18 13 33 34 33z" />
    <glyph glyph-name="kgreenlandic" unicode="&#x138;" horiz-adv-x="472" 
d="M148 0h-34v520h34v-520zM196 276l262 -276h-42l-262 274l237 246h43z" />
    <glyph glyph-name="Lacute" unicode="&#x139;" horiz-adv-x="458" 
d="M240 837l-186 -76l-10 22l178 89zM154 33h288l-6 -33h-317v682h35v-649z" />
    <glyph glyph-name="lacute" unicode="&#x13a;" horiz-adv-x="278" 
d="M228 887l-186 -76l-10 22l178 89zM143 79c0 -39 13 -58 50 -58c12 0 24 3 36 8l10 -28c-13 -6 -32 -11 -51 -11c-49 0 -79 27 -79 90v654l34 5v-660z" />
    <glyph glyph-name="Lcommaaccent" unicode="&#x13b;" horiz-adv-x="458" 
d="M154 33h288l-6 -33h-317v682h35v-649zM279 -90c22 0 34 -15 34 -33c0 -16 -5 -26 -19 -58l-39 -86h-24l34 113c-16 6 -20 15 -20 31c0 18 13 33 34 33z" />
    <glyph glyph-name="lcommaaccent" unicode="&#x13c;" horiz-adv-x="278" 
d="M143 79c0 -39 13 -58 50 -58c12 0 24 3 36 8l10 -28c-13 -6 -32 -11 -51 -11c-49 0 -79 27 -79 90v654l34 5v-660zM130 -90c22 0 34 -15 34 -33c0 -16 -5 -26 -19 -58l-39 -86h-24l34 113c-16 6 -20 15 -20 31c0 18 13 33 34 33z" />
    <glyph glyph-name="Lcaron" unicode="&#x13d;" horiz-adv-x="458" 
d="M287 682l-31 -150l-23 3l18 151zM154 33h288l-6 -33h-317v682h35v-649z" />
    <glyph glyph-name="lcaron" unicode="&#x13e;" horiz-adv-x="278" 
d="M143 79c0 -39 13 -58 50 -58c12 0 24 3 36 8l10 -28c-13 -6 -32 -11 -51 -11c-49 0 -79 27 -79 90v654l34 5v-660zM267 734l-31 -150l-23 3l18 151z" />
    <glyph glyph-name="Ldot" unicode="&#x13f;" horiz-adv-x="458" 
d="M154 33h288l-6 -33h-317v682h35v-649zM354 383c19 0 29 -13 29 -27c0 -15 -10 -28 -29 -28c-17 0 -28 13 -28 28c0 14 11 27 28 27z" />
    <glyph glyph-name="ldot" unicode="&#x140;" horiz-adv-x="280" 
d="M143 79c0 -39 13 -58 50 -58c12 0 24 3 36 8l10 -28c-13 -6 -32 -11 -51 -11c-49 0 -79 27 -79 90v654l34 5v-660zM262 402c19 0 29 -13 29 -27c0 -15 -10 -28 -29 -28c-17 0 -28 13 -28 28c0 14 11 27 28 27z" />
    <glyph glyph-name="Lslash" unicode="&#x141;" horiz-adv-x="464" 
d="M449 33l-6 -33h-318v299l-70 -44l-14 24l84 53v350h35v-328l196 122l15 -24l-211 -132v-287h289z" />
    <glyph glyph-name="lslash" unicode="&#x142;" horiz-adv-x="284" 
d="M199 21c12 0 25 3 36 8l10 -28c-13 -6 -32 -11 -50 -11c-50 0 -80 27 -80 90v267l-63 -38l-15 25l78 48v352l34 5v-336l101 62l15 -26l-116 -71v-289c0 -39 13 -58 50 -58z" />
    <glyph glyph-name="Nacute" unicode="&#x143;" horiz-adv-x="665" 
d="M443 837l-186 -76l-10 22l178 89zM547 0h-44l-355 643c3 -40 5 -93 5 -213v-430h-34v682h44l354 -643c-2 39 -4 107 -4 198v445h34v-682z" />
    <glyph glyph-name="nacute" unicode="&#x144;" horiz-adv-x="582" 
d="M201 650l-12 23l180 96l16 -35zM333 531c94 0 141 -59 141 -160v-371h-34v366c0 92 -37 135 -110 135c-80 0 -134 -49 -182 -119v-382h-34v520h29l4 -97c46 64 105 108 186 108z" />
    <glyph glyph-name="Ncommaaccent" unicode="&#x145;" horiz-adv-x="665" 
d="M547 0h-44l-355 643c3 -40 5 -93 5 -213v-430h-34v682h44l354 -643c-2 39 -4 107 -4 198v445h34v-682zM331 -90c22 0 34 -15 34 -33c0 -16 -5 -26 -19 -58l-39 -86h-24l34 113c-16 6 -20 15 -20 31c0 18 13 33 34 33z" />
    <glyph glyph-name="ncommaaccent" unicode="&#x146;" horiz-adv-x="582" 
d="M333 531c94 0 141 -59 141 -160v-371h-34v366c0 92 -37 135 -110 135c-80 0 -134 -49 -182 -119v-382h-34v520h29l4 -97c46 64 105 108 186 108zM289 -90c22 0 34 -15 34 -33c0 -16 -5 -26 -19 -58l-39 -86h-24l34 113c-16 6 -20 15 -20 31c0 18 13 33 34 33z" />
    <glyph glyph-name="Ncaron" unicode="&#x147;" horiz-adv-x="665" 
d="M478 853l-124 -95h-19l-126 95l17 20l118 -80l118 80zM547 0h-44l-355 643c3 -40 5 -93 5 -213v-430h-34v682h44l354 -643c-2 39 -4 107 -4 198v445h34v-682z" />
    <glyph glyph-name="ncaron" unicode="&#x148;" horiz-adv-x="582" 
d="M293 640l-126 101l17 20l118 -85l118 85l16 -20l-124 -101h-19zM333 531c94 0 141 -59 141 -160v-371h-34v366c0 92 -37 135 -110 135c-80 0 -134 -49 -182 -119v-382h-34v520h29l4 -97c46 64 105 108 186 108z" />
    <glyph glyph-name="napostrophe" unicode="&#x149;" horiz-adv-x="582" 
d="M149 706c0 -16 -7 -24 -19 -58l-33 -92h-23l27 119c-16 6 -20 15 -20 31c0 18 13 33 34 33c22 0 34 -15 34 -33zM333 531c94 0 141 -59 141 -160v-371h-34v366c0 92 -37 135 -110 135c-80 0 -134 -49 -182 -119v-382h-34v520h29l4 -97c46 64 105 108 186 108z" />
    <glyph glyph-name="Eng" unicode="&#x14a;" horiz-adv-x="665" 
d="M547 682v-672c0 -134 -40 -166 -122 -207l-10 24c69 35 99 64 101 173h-15l-352 643h-1c3 -40 5 -93 5 -213v-430h-34v682h46l351 -643h1c-2 39 -4 107 -4 198v445h34z" />
    <glyph glyph-name="eng" unicode="&#x14b;" horiz-adv-x="582" 
d="M333 531c93 0 141 -61 141 -160v-361c0 -134 -40 -166 -122 -207l-10 25c69 36 98 65 98 182v356c0 90 -37 135 -110 135c-80 0 -134 -49 -182 -119v-382h-34v520h29l4 -97c46 64 105 108 186 108z" />
    <glyph glyph-name="Omacron" unicode="&#x14c;" horiz-adv-x="690" 
d="M222 808v32h218v-32h-218zM345 693c162 0 271 -122 271 -353c0 -222 -104 -350 -271 -350c-161 0 -271 124 -271 349c0 226 111 354 271 354zM345 660c-139 0 -235 -107 -235 -321c0 -209 97 -317 235 -317c146 0 235 108 235 318c0 215 -94 320 -235 320z" />
    <glyph glyph-name="omacron" unicode="&#x14d;" horiz-adv-x="562" 
d="M173 682v32h218v-32h-218zM282 531c130 0 211 -95 211 -269c0 -172 -83 -272 -212 -272c-132 0 -212 101 -212 269c0 172 84 272 213 272zM282 500c-108 0 -177 -82 -177 -241c0 -153 66 -238 176 -238c108 0 177 83 177 241c0 155 -66 238 -176 238z" />
    <glyph glyph-name="Obreve" unicode="&#x14e;" horiz-adv-x="690" 
d="M331 769c-61 0 -106 39 -115 85l25 5c12 -34 43 -58 90 -58s79 24 91 58l25 -5c-9 -46 -54 -85 -116 -85zM345 693c162 0 271 -122 271 -353c0 -222 -104 -350 -271 -350c-161 0 -271 124 -271 349c0 226 111 354 271 354zM345 660c-139 0 -235 -107 -235 -321
c0 -209 97 -317 235 -317c146 0 235 108 235 318c0 215 -94 320 -235 320z" />
    <glyph glyph-name="obreve" unicode="&#x14f;" horiz-adv-x="562" 
d="M281 660c-61 0 -106 39 -115 94l25 6c12 -44 43 -69 90 -69s79 25 91 69l25 -6c-9 -55 -54 -94 -116 -94zM282 531c130 0 211 -95 211 -269c0 -172 -83 -272 -212 -272c-132 0 -212 101 -212 269c0 172 84 272 213 272zM282 500c-108 0 -177 -82 -177 -241
c0 -153 66 -238 176 -238c108 0 177 83 177 241c0 155 -66 238 -176 238z" />
    <glyph glyph-name="Ohungarumlaut" unicode="&#x150;" horiz-adv-x="690" 
d="M356 904l-77 -126l-24 12l67 132zM469 905l-83 -131l-25 12l74 136zM345 693c162 0 271 -122 271 -353c0 -222 -104 -350 -271 -350c-161 0 -271 124 -271 349c0 226 111 354 271 354zM345 660c-139 0 -235 -107 -235 -321c0 -209 97 -317 235 -317
c146 0 235 108 235 318c0 215 -94 320 -235 320z" />
    <glyph glyph-name="ohungarumlaut" unicode="&#x151;" horiz-adv-x="562" 
d="M311 778l-77 -126l-24 12l67 132zM424 779l-83 -131l-25 12l74 136zM282 531c130 0 211 -95 211 -269c0 -172 -83 -272 -212 -272c-132 0 -212 101 -212 269c0 172 84 272 213 272zM282 500c-108 0 -177 -82 -177 -241c0 -153 66 -238 176 -238c108 0 177 83 177 241
c0 155 -66 238 -176 238z" />
    <glyph glyph-name="OE" unicode="&#x152;" horiz-adv-x="852" 
d="M810 0h-408c-21 -7 -44 -10 -67 -10c-151 0 -261 124 -261 349c0 226 111 354 261 354c25 0 50 -4 72 -11h397l-4 -32h-331c76 -50 121 -143 127 -276h164v-31h-164c-1 -156 -49 -261 -130 -311h344v-32zM110 339c0 -209 97 -317 225 -317c136 0 225 108 225 327
c0 206 -94 311 -225 311c-129 0 -225 -107 -225 -321z" />
    <glyph glyph-name="oe" unicode="&#x153;" horiz-adv-x="919" 
d="M855 283c0 -15 -1 -31 -2 -40h-360c7 -154 80 -222 179 -222c60 0 98 20 143 55l19 -24c-47 -39 -95 -62 -163 -62c-97 0 -166 58 -196 152c-31 -94 -99 -152 -194 -152c-132 0 -212 101 -212 269c0 172 84 272 213 272c97 0 165 -57 194 -152c30 93 95 152 184 152
c131 0 195 -99 195 -248zM281 21c108 0 177 83 177 241c0 155 -66 238 -176 238c-108 0 -177 -82 -177 -241c0 -153 66 -238 176 -238zM821 272v23c0 121 -50 205 -159 205c-89 0 -164 -69 -169 -228h328z" />
    <glyph glyph-name="Racute" unicode="&#x154;" horiz-adv-x="579" 
d="M208 761l-10 22l178 89l18 -35zM313 318h-159v-318h-35v682h155c160 0 231 -64 231 -180c0 -106 -62 -157 -155 -178l190 -324h-44zM281 350c118 0 187 47 187 152c0 96 -53 149 -197 149h-117v-301h127z" />
    <glyph glyph-name="racute" unicode="&#x155;" horiz-adv-x="364" 
d="M133 650l-12 23l180 96l16 -35zM298 531c23 0 40 -3 52 -6l-7 -31c-13 4 -29 6 -46 6c-77 0 -118 -56 -149 -168v-332h-34v520h29l2 -124c28 90 75 135 153 135z" />
    <glyph glyph-name="Rcommaaccent" unicode="&#x156;" horiz-adv-x="579" 
d="M540 0h-44l-183 318h-159v-318h-35v682h155c160 0 231 -64 231 -180c0 -106 -62 -157 -155 -178zM281 350c118 0 187 47 187 152c0 96 -53 149 -197 149h-117v-301h127zM303 -90c22 0 34 -15 34 -33c0 -16 -5 -26 -19 -58l-39 -86h-24l34 113c-16 6 -20 15 -20 31
c0 18 13 33 34 33z" />
    <glyph glyph-name="rcommaaccent" unicode="&#x157;" horiz-adv-x="364" 
d="M298 531c23 0 40 -3 52 -6l-7 -31c-13 4 -29 6 -46 6c-77 0 -118 -56 -149 -168v-332h-34v520h29l2 -124c28 90 75 135 153 135zM129 -90c22 0 34 -15 34 -33c0 -16 -5 -26 -19 -58l-39 -86h-24l34 113c-16 6 -20 15 -20 31c0 18 13 33 34 33z" />
    <glyph glyph-name="Rcaron" unicode="&#x158;" horiz-adv-x="579" 
d="M286 758l-126 95l17 20l118 -80l118 80l16 -20l-124 -95h-19zM313 318h-159v-318h-35v682h155c160 0 231 -64 231 -180c0 -106 -62 -157 -155 -178l190 -324h-44zM281 350c118 0 187 47 187 152c0 96 -53 149 -197 149h-117v-301h127z" />
    <glyph glyph-name="rcaron" unicode="&#x159;" horiz-adv-x="364" 
d="M225 640l-126 101l17 20l118 -85l118 85l16 -20l-124 -101h-19zM145 396c28 90 75 135 153 135c23 0 40 -3 52 -6l-7 -31c-13 4 -29 6 -46 6c-77 0 -118 -56 -149 -168v-332h-34v520h29z" />
    <glyph glyph-name="Sacute" unicode="&#x15a;" horiz-adv-x="535" 
d="M372 837l-186 -76l-10 22l178 89zM265 693c85 0 135 -28 185 -73l-22 -24c-50 45 -95 64 -162 64c-95 0 -155 -52 -155 -128c0 -79 44 -113 166 -150c133 -40 194 -85 194 -198c0 -116 -88 -194 -214 -194c-90 0 -153 33 -209 83l23 24c49 -45 102 -75 185 -75
c107 0 180 62 180 160c0 95 -46 131 -172 170c-138 43 -189 88 -189 180c0 91 75 161 190 161z" />
    <glyph glyph-name="sacute" unicode="&#x15b;" horiz-adv-x="461" 
d="M323 734l-184 -84l-12 23l180 96zM231 531c62 0 110 -19 159 -58l-20 -23c-45 34 -82 50 -137 50c-76 0 -130 -39 -130 -101c0 -58 37 -83 136 -109c118 -32 164 -67 164 -154c0 -88 -73 -146 -175 -146c-83 0 -135 29 -180 66l21 23c46 -37 89 -58 159 -58
c80 0 140 40 140 114c0 71 -32 97 -145 128c-110 29 -155 64 -155 137c0 77 71 131 163 131z" />
    <glyph glyph-name="Scircumflex" unicode="&#x15c;" horiz-adv-x="535" 
d="M268 844l-118 -79l-17 19l126 95h19l124 -95l-16 -19zM265 693c85 0 135 -28 185 -73l-22 -24c-50 45 -95 64 -162 64c-95 0 -155 -52 -155 -128c0 -79 44 -113 166 -150c133 -40 194 -85 194 -198c0 -116 -88 -194 -214 -194c-90 0 -153 33 -209 83l23 24
c49 -45 102 -75 185 -75c107 0 180 62 180 160c0 95 -46 131 -172 170c-138 43 -189 88 -189 180c0 91 75 161 190 161z" />
    <glyph glyph-name="scircumflex" unicode="&#x15d;" horiz-adv-x="461" 
d="M104 670l125 100h19l125 -100l-16 -20l-119 85l-117 -85zM231 531c62 0 110 -19 159 -58l-20 -23c-45 34 -82 50 -137 50c-76 0 -130 -39 -130 -101c0 -58 37 -83 136 -109c118 -32 164 -67 164 -154c0 -88 -73 -146 -175 -146c-83 0 -135 29 -180 66l21 23
c46 -37 89 -58 159 -58c80 0 140 40 140 114c0 71 -32 97 -145 128c-110 29 -155 64 -155 137c0 77 71 131 163 131z" />
    <glyph glyph-name="Scedilla" unicode="&#x15e;" horiz-adv-x="535" 
d="M471 184c0 -113 -83 -189 -203 -194v-60c63 -4 91 -29 91 -70c0 -49 -42 -78 -92 -78c-32 0 -55 9 -72 20l14 25c13 -9 32 -15 58 -15c32 0 59 15 59 48c0 32 -27 46 -89 47l5 83c-82 4 -141 36 -194 83l23 24c49 -45 102 -75 185 -75c107 0 180 62 180 160
c0 95 -46 131 -172 170c-138 43 -189 88 -189 180c0 91 75 161 190 161c85 0 135 -28 185 -73l-22 -24c-50 45 -95 64 -162 64c-95 0 -155 -52 -155 -128c0 -79 44 -113 166 -150c133 -40 194 -85 194 -198z" />
    <glyph glyph-name="scedilla" unicode="&#x15f;" horiz-adv-x="461" 
d="M403 136c0 -85 -68 -142 -164 -146v-60c63 -4 91 -29 91 -70c0 -49 -42 -78 -92 -78c-32 0 -55 9 -72 20l14 25c13 -9 32 -15 58 -15c32 0 59 15 59 48c0 32 -27 46 -89 47l5 83c-74 4 -123 31 -165 66l21 23c46 -37 89 -58 159 -58c80 0 140 40 140 114
c0 71 -32 97 -145 128c-110 29 -155 64 -155 137c0 77 71 131 163 131c62 0 110 -19 159 -58l-20 -23c-45 34 -82 50 -137 50c-76 0 -130 -39 -130 -101c0 -58 37 -83 136 -109c118 -32 164 -67 164 -154z" />
    <glyph glyph-name="Scaron" unicode="&#x160;" horiz-adv-x="535" 
d="M407 853l-124 -95h-19l-126 95l17 20l118 -80l118 80zM265 693c85 0 135 -28 185 -73l-22 -24c-50 45 -95 64 -162 64c-95 0 -155 -52 -155 -128c0 -79 44 -113 166 -150c133 -40 194 -85 194 -198c0 -116 -88 -194 -214 -194c-90 0 -153 33 -209 83l23 24
c49 -45 102 -75 185 -75c107 0 180 62 180 160c0 95 -46 131 -172 170c-138 43 -189 88 -189 180c0 91 75 161 190 161z" />
    <glyph glyph-name="scaron" unicode="&#x161;" horiz-adv-x="461" 
d="M374 741l-124 -101h-19l-126 101l17 20l118 -85l118 85zM231 531c62 0 110 -19 159 -58l-20 -23c-45 34 -82 50 -137 50c-76 0 -130 -39 -130 -101c0 -58 37 -83 136 -109c118 -32 164 -67 164 -154c0 -88 -73 -146 -175 -146c-83 0 -135 29 -180 66l21 23
c46 -37 89 -58 159 -58c80 0 140 40 140 114c0 71 -32 97 -145 128c-110 29 -155 64 -155 137c0 77 71 131 163 131z" />
    <glyph glyph-name="Tcedilla" unicode="&#x162;" horiz-adv-x="480" 
d="M257 -70c63 -4 91 -29 91 -70c0 -49 -43 -78 -92 -78c-32 0 -55 9 -72 20l14 25c13 -9 32 -15 58 -15c32 0 59 15 59 48c0 32 -27 46 -89 47l6 93h-10v649h-207v33h455l-6 -33h-207v-719z" />
    <glyph glyph-name="tcedilla" unicode="&#x163;" horiz-adv-x="327" 
d="M231 -70c63 -4 91 -29 91 -70c0 -49 -42 -78 -92 -78c-32 0 -55 9 -72 20l14 25c13 -9 32 -15 58 -15c32 0 59 15 59 48c0 32 -27 46 -89 47l5 84c-59 8 -96 51 -96 128v372h-85v29h85v130l34 3v-133h142l-5 -29h-137v-370c0 -66 29 -100 87 -100c33 0 61 10 87 25
l15 -26c-28 -17 -62 -29 -101 -30v-60z" />
    <glyph glyph-name="Tcaron" unicode="&#x164;" horiz-adv-x="480" 
d="M369 853l-124 -95h-19l-126 95l17 20l118 -80l118 80zM464 649h-207v-649h-35v649h-207v33h455z" />
    <glyph glyph-name="tcaron" unicode="&#x165;" horiz-adv-x="327" 
d="M245 585l-23 3l18 151l36 -4zM332 20c-29 -18 -64 -30 -105 -30c-72 0 -118 43 -118 129v372h-85v29h85v130l34 3v-133h142l-5 -29h-137v-370c0 -66 29 -100 87 -100c33 0 61 10 87 25z" />
    <glyph glyph-name="Tbar" unicode="&#x166;" horiz-adv-x="487" 
d="M257 649v-267h126v-30h-126v-352h-35v352h-122v30h122v267h-207v33h455l-6 -33h-207z" />
    <glyph glyph-name="tbar" unicode="&#x167;" horiz-adv-x="327" 
d="M332 20c-29 -18 -64 -30 -105 -30c-72 0 -118 43 -118 129v196h-84v30h84v146h-85v29h85v130l34 3v-133h142l-5 -29h-137v-146h136l-5 -30h-131v-194c0 -66 29 -100 87 -100c33 0 61 10 87 25z" />
    <glyph glyph-name="Utilde" unicode="&#x168;" horiz-adv-x="644" 
d="M388 800c-56 0 -88 43 -122 43c-30 0 -39 -10 -59 -36l-21 12c21 34 45 54 80 54c40 0 78 -43 119 -43c20 0 35 11 57 43l21 -12c-22 -44 -49 -61 -75 -61zM536 209c0 -128 -66 -219 -213 -219c-150 0 -214 91 -214 219v473h35v-470c0 -113 52 -190 179 -190
s177 79 177 190v470h36v-473z" />
    <glyph glyph-name="utilde" unicode="&#x169;" horiz-adv-x="577" 
d="M349 674c-56 0 -88 43 -122 43c-30 0 -39 -10 -59 -36l-21 12c21 34 45 54 80 54c40 0 78 -43 119 -43c20 0 35 11 57 43l21 -12c-22 -44 -49 -61 -75 -61zM464 0h-30l-1 101c-34 -61 -91 -111 -176 -111c-94 0 -148 56 -148 159v371h34v-368c0 -91 42 -131 119 -131
s128 49 168 118v381h34v-520z" />
    <glyph glyph-name="Umacron" unicode="&#x16a;" horiz-adv-x="644" 
d="M216 808v32h218v-32h-218zM536 209c0 -128 -66 -219 -213 -219c-150 0 -214 91 -214 219v473h35v-470c0 -113 52 -190 179 -190s177 79 177 190v470h36v-473z" />
    <glyph glyph-name="umacron" unicode="&#x16b;" horiz-adv-x="577" 
d="M177 682v32h218v-32h-218zM464 0h-30l-1 101c-34 -61 -91 -111 -176 -111c-94 0 -148 56 -148 159v371h34v-368c0 -91 42 -131 119 -131s128 49 168 118v381h34v-520z" />
    <glyph glyph-name="Ubreve" unicode="&#x16c;" horiz-adv-x="644" 
d="M325 769c-61 0 -106 39 -115 85l25 5c12 -34 43 -58 90 -58s79 24 91 58l25 -5c-9 -46 -54 -85 -116 -85zM536 209c0 -128 -66 -219 -213 -219c-150 0 -214 91 -214 219v473h35v-470c0 -113 52 -190 179 -190s177 79 177 190v470h36v-473z" />
    <glyph glyph-name="ubreve" unicode="&#x16d;" horiz-adv-x="577" 
d="M286 660c-61 0 -106 39 -115 94l25 6c12 -44 43 -69 90 -69s79 25 91 69l25 -6c-9 -55 -54 -94 -116 -94zM464 0h-30l-1 101c-34 -61 -91 -111 -176 -111c-94 0 -148 56 -148 159v371h34v-368c0 -91 42 -131 119 -131s128 49 168 118v381h34v-520z" />
    <glyph glyph-name="Uring" unicode="&#x16e;" horiz-adv-x="644" 
d="M326 936c52 0 88 -34 88 -86c0 -51 -36 -85 -88 -85s-88 34 -88 85c0 52 36 86 88 86zM326 910c-37 0 -57 -22 -57 -60c0 -37 20 -59 57 -59c36 0 57 22 57 59c0 38 -20 60 -57 60zM536 209c0 -128 -66 -219 -213 -219c-150 0 -214 91 -214 219v473h35v-470
c0 -113 52 -190 179 -190s177 79 177 190v470h36v-473z" />
    <glyph glyph-name="uring" unicode="&#x16f;" horiz-adv-x="577" 
d="M286 810c52 0 88 -34 88 -86c0 -51 -36 -85 -88 -85s-88 34 -88 85c0 52 36 86 88 86zM286 784c-37 0 -57 -22 -57 -60c0 -37 20 -59 57 -59c36 0 57 22 57 59c0 38 -20 60 -57 60zM464 0h-30l-1 101c-34 -61 -91 -111 -176 -111c-94 0 -148 56 -148 159v371h34v-368
c0 -91 42 -131 119 -131s128 49 168 118v381h34v-520z" />
    <glyph glyph-name="Uhungarumlaut" unicode="&#x170;" horiz-adv-x="644" 
d="M350 904l-77 -126l-24 12l67 132zM463 905l-83 -131l-25 12l74 136zM536 209c0 -128 -66 -219 -213 -219c-150 0 -214 91 -214 219v473h35v-470c0 -113 52 -190 179 -190s177 79 177 190v470h36v-473z" />
    <glyph glyph-name="uhungarumlaut" unicode="&#x171;" horiz-adv-x="577" 
d="M316 778l-77 -126l-24 12l67 132zM429 779l-83 -131l-25 12l74 136zM464 0h-30l-1 101c-34 -61 -91 -111 -176 -111c-94 0 -148 56 -148 159v371h34v-368c0 -91 42 -131 119 -131s128 49 168 118v381h34v-520z" />
    <glyph glyph-name="Uogonek" unicode="&#x172;" horiz-adv-x="644" 
d="M536 682v-473c0 -105 -44 -185 -141 -210c-77 -37 -118 -66 -118 -120c0 -32 23 -54 70 -54c18 0 32 2 53 6l-3 -33c-20 -4 -35 -6 -55 -6c-70 0 -101 38 -101 85c0 48 31 83 92 113h-10c-150 0 -214 91 -214 219v473h35v-470c0 -113 52 -190 179 -190s177 79 177 190
v470h36z" />
    <glyph glyph-name="uogonek" unicode="&#x173;" horiz-adv-x="577" 
d="M413 -175c18 0 32 2 53 6l-3 -33c-20 -4 -35 -6 -55 -6c-70 0 -101 38 -101 85c0 58 43 97 127 134l-1 90c-34 -61 -91 -111 -176 -111c-94 0 -148 56 -148 159v371h34v-368c0 -91 42 -131 119 -131s128 49 168 118v381h34v-520c-79 -37 -121 -66 -121 -121
c0 -32 23 -54 70 -54z" />
    <glyph glyph-name="Wcircumflex" unicode="&#x174;" horiz-adv-x="798" 
d="M399 844l-118 -79l-17 19l126 95h19l124 -95l-16 -19zM606 0h-42l-165 647l-166 -647h-41l-158 682h37l144 -647l163 647h42l165 -647l143 647h36z" />
    <glyph glyph-name="wcircumflex" unicode="&#x175;" horiz-adv-x="685" 
d="M212 670l125 100h19l125 -100l-16 -20l-119 85l-117 -85zM523 0h-46l-133 487l-133 -487h-46l-136 520h37l123 -489l135 489h41l135 -490l121 490h35z" />
    <glyph glyph-name="Ycircumflex" unicode="&#x176;" horiz-adv-x="503" 
d="M248 844l-118 -79l-17 19l126 95h19l124 -95l-16 -19zM271 271v-271h-36v270l-216 412h40l195 -382l191 382h39z" />
    <glyph glyph-name="ycircumflex" unicode="&#x177;" horiz-adv-x="451" 
d="M87 670l125 100h19l125 -100l-16 -20l-119 85l-117 -85zM249 -2c-40 -115 -77 -165 -191 -196l-4 27c104 30 127 72 163 171h-13l-185 520h38l170 -494l167 494h37z" />
    <glyph glyph-name="Ydieresis" unicode="&#x178;" horiz-adv-x="503" 
d="M160 849c17 0 28 -12 28 -27s-11 -27 -28 -27c-16 0 -27 12 -27 27s11 27 27 27zM335 849c17 0 28 -12 28 -27s-11 -27 -28 -27s-28 12 -28 27s11 27 28 27zM271 271v-271h-36v270l-216 412h40l195 -382l191 382h39z" />
    <glyph glyph-name="Zacute" unicode="&#x179;" horiz-adv-x="512" 
d="M360 837l-186 -76l-10 22l178 89zM462 652l-381 -619h370l-5 -33h-407v31l383 619h-345v32h385v-30z" />
    <glyph glyph-name="zacute" unicode="&#x17a;" horiz-adv-x="412" 
d="M302 734l-184 -84l-12 23l180 96zM377 493l-305 -462h299l-3 -31h-338v28l305 461h-280v31h322v-27z" />
    <glyph glyph-name="Zdotaccent" unicode="&#x17b;" horiz-adv-x="512" 
d="M257 860c19 0 29 -13 29 -27c0 -15 -10 -28 -29 -28c-17 0 -28 13 -28 28c0 14 11 27 28 27zM462 652l-381 -619h370l-5 -33h-407v31l383 619h-345v32h385v-30z" />
    <glyph glyph-name="zdotaccent" unicode="&#x17c;" horiz-adv-x="412" 
d="M214 734c19 0 29 -13 29 -27c0 -15 -10 -28 -29 -28c-17 0 -28 13 -28 28c0 14 11 27 28 27zM377 493l-305 -462h299l-3 -31h-338v28l305 461h-280v31h322v-27z" />
    <glyph glyph-name="Zcaron" unicode="&#x17d;" horiz-adv-x="512" 
d="M396 853l-124 -95h-19l-126 95l17 20l118 -80l118 80zM462 652l-381 -619h370l-5 -33h-407v31l383 619h-345v32h385v-30z" />
    <glyph glyph-name="zcaron" unicode="&#x17e;" horiz-adv-x="412" 
d="M353 741l-124 -101h-19l-126 101l17 20l118 -85l118 85zM377 493l-305 -462h299l-3 -31h-338v28l305 461h-280v31h322v-27z" />
    <glyph glyph-name="florin" unicode="&#x192;" horiz-adv-x="309" 
d="M248 708c-61 0 -99 -27 -99 -96v-92h144l-5 -29h-139v-481c0 -134 -40 -166 -122 -207l-10 25c69 36 98 65 98 182v481h-88v29h88v96c0 78 52 123 131 123c41 0 83 -11 118 -29l-13 -27c-34 16 -67 25 -103 25z" />
    <glyph glyph-name="AEacute" unicode="&#x1fc;" horiz-adv-x="761" 
d="M361 761l-10 22l178 89l18 -35zM720 32v-32h-256l-50 192h-298l-73 -192h-35l263 682h397l-5 -32h-335l72 -276h261v-31h-253l82 -311h230zM405 224l-112 430l-164 -430h276z" />
    <glyph glyph-name="aeacute" unicode="&#x1fd;" horiz-adv-x="846" 
d="M326 650l-12 23l180 96l16 -35zM781 283c0 -15 -1 -31 -2 -40h-359c6 -154 79 -222 178 -222c61 0 99 20 144 55l18 -24c-46 -39 -95 -62 -162 -62c-84 0 -149 41 -184 115c-58 -84 -115 -115 -191 -115c-100 0 -159 61 -159 154c0 108 82 167 207 167h113v57
c0 88 -32 132 -128 132c-46 0 -92 -12 -142 -32l-10 28c53 22 100 35 153 35c98 0 147 -42 158 -122c34 81 94 122 175 122c127 0 191 -99 191 -248zM747 272v23c0 121 -49 205 -156 205c-92 0 -166 -69 -171 -228h327zM224 21c73 0 123 35 178 114c-12 35 -18 75 -18 121
v25h-107c-110 0 -177 -45 -177 -136c0 -79 48 -124 124 -124z" />
    <glyph glyph-name="Oslashacute" unicode="&#x1fe;" horiz-adv-x="690" 
d="M255 771l-10 22l178 89l18 -35zM457 670c98 -45 159 -157 159 -330c0 -222 -104 -350 -271 -350c-31 0 -59 4 -86 13l-31 -118l-34 10l37 120c-97 46 -157 157 -157 324c0 226 111 354 271 354c30 0 57 -4 83 -12l33 123l34 -10zM110 339c0 -153 52 -252 133 -294
l177 604c-23 7 -48 11 -75 11c-139 0 -235 -107 -235 -321zM345 22c146 0 235 108 235 318c0 159 -51 257 -134 298l-178 -603c24 -9 49 -13 77 -13z" />
    <glyph glyph-name="oslashacute" unicode="&#x1ff;" horiz-adv-x="562" 
d="M185 650l-12 23l180 96l16 -35zM381 508c71 -38 112 -122 112 -246c0 -172 -83 -272 -212 -272c-25 0 -48 4 -69 11l-43 -123l-30 9l44 126c-73 39 -114 125 -114 246c0 172 84 272 213 272c25 0 49 -4 70 -11l40 123l30 -9zM105 259c0 -109 33 -183 91 -217l148 448
c-19 7 -39 10 -62 10c-108 0 -177 -82 -177 -241zM281 21c108 0 177 83 177 241c0 109 -32 182 -90 216l-148 -447c18 -7 39 -10 61 -10z" />
    <glyph glyph-name="Scommaaccent" unicode="&#x218;" horiz-adv-x="535" 
d="M265 693c85 0 135 -28 185 -73l-22 -24c-50 45 -95 64 -162 64c-95 0 -155 -52 -155 -128c0 -79 44 -113 166 -150c133 -40 194 -85 194 -198c0 -116 -88 -194 -214 -194c-90 0 -153 33 -209 83l23 24c49 -45 102 -75 185 -75c107 0 180 62 180 160
c0 95 -46 131 -172 170c-138 43 -189 88 -189 180c0 91 75 161 190 161zM260 -90c22 0 34 -15 34 -33c0 -16 -5 -26 -19 -58l-39 -86h-24l34 113c-16 6 -20 15 -20 31c0 18 13 33 34 33z" />
    <glyph glyph-name="scommaaccent" unicode="&#x219;" horiz-adv-x="461" 
d="M231 531c62 0 110 -19 159 -58l-20 -23c-45 34 -82 50 -137 50c-76 0 -130 -39 -130 -101c0 -58 37 -83 136 -109c118 -32 164 -67 164 -154c0 -88 -73 -146 -175 -146c-83 0 -135 29 -180 66l21 23c46 -37 89 -58 159 -58c80 0 140 40 140 114c0 71 -32 97 -145 128
c-110 29 -155 64 -155 137c0 77 71 131 163 131zM230 -90c22 0 34 -15 34 -33c0 -16 -5 -26 -19 -58l-39 -86h-24l34 113c-16 6 -20 15 -20 31c0 18 13 33 34 33z" />
    <glyph glyph-name="uni021A" unicode="&#x21a;" horiz-adv-x="480" 
d="M464 649h-207v-649h-35v649h-207v33h455zM238 -90c22 0 34 -15 34 -33c0 -16 -5 -26 -19 -58l-39 -86h-24l34 113c-16 6 -20 15 -20 31c0 18 13 33 34 33z" />
    <glyph glyph-name="uni021B" unicode="&#x21b;" horiz-adv-x="327" 
d="M332 20c-29 -18 -64 -30 -105 -30c-72 0 -118 43 -118 129v372h-85v29h85v130l34 3v-133h142l-5 -29h-137v-370c0 -66 29 -100 87 -100c33 0 61 10 87 25zM222 -90c22 0 34 -15 34 -33c0 -16 -5 -26 -19 -58l-39 -86h-24l34 113c-16 6 -20 15 -20 31c0 18 13 33 34 33z
" />
    <glyph glyph-name="jdotless" unicode="&#x237;" horiz-adv-x="262" 
d="M149 10c0 -134 -40 -166 -122 -207l-10 25c69 36 98 65 98 182v510h34v-510z" />
    <glyph glyph-name="uni02BC" unicode="&#x2bc;" horiz-adv-x="135" 
d="M71 739c22 0 34 -15 34 -33c0 -16 -7 -24 -19 -58l-33 -92h-23l27 119c-16 6 -20 15 -20 31c0 18 13 33 34 33z" />
    <glyph glyph-name="circumflex" unicode="&#x2c6;" horiz-adv-x="329" 
d="M30 670l125 100h19l125 -100l-16 -20l-119 85l-117 -85z" />
    <glyph glyph-name="caron" unicode="&#x2c7;" horiz-adv-x="329" 
d="M299 738l-124 -101h-19l-126 101l17 20l118 -85l118 85z" />
    <glyph glyph-name="breve" unicode="&#x2d8;" horiz-adv-x="291" 
d="M145 660c-61 0 -106 39 -115 94l25 6c12 -44 43 -69 90 -69s79 25 91 69l25 -6c-9 -55 -54 -94 -116 -94z" />
    <glyph glyph-name="dotaccent" unicode="&#x2d9;" horiz-adv-x="117" 
d="M58 734c19 0 29 -13 29 -27c0 -15 -10 -28 -29 -28c-17 0 -28 13 -28 28c0 14 11 27 28 27z" />
    <glyph glyph-name="ring" unicode="&#x2da;" horiz-adv-x="232" 
d="M118 810c52 0 88 -34 88 -86c0 -51 -36 -85 -88 -85s-88 34 -88 85c0 52 36 86 88 86zM118 784c-37 0 -57 -22 -57 -60c0 -37 20 -59 57 -59c36 0 57 22 57 59c0 38 -20 60 -57 60z" />
    <glyph glyph-name="ogonek" unicode="&#x2db;" horiz-adv-x="235" 
d="M155 0c-79 -37 -121 -66 -121 -121c0 -32 23 -54 70 -54c18 0 32 2 53 6l-3 -33c-20 -4 -35 -6 -55 -6c-70 0 -101 38 -101 85c0 62 50 103 146 142z" />
    <glyph glyph-name="tilde" unicode="&#x2dc;" horiz-adv-x="337" 
d="M232 674c-56 0 -88 43 -122 43c-30 0 -39 -10 -59 -36l-21 12c21 34 45 54 80 54c40 0 78 -43 119 -43c20 0 35 11 57 43l21 -12c-22 -44 -49 -61 -75 -61z" />
    <glyph glyph-name="hungarumlaut" unicode="&#x2dd;" horiz-adv-x="274" 
d="M131 778l-77 -126l-24 12l67 132zM244 779l-83 -131l-25 12l74 136z" />
    <glyph glyph-name="gravecomb" unicode="&#x300;" horiz-adv-x="0" 
d="M235 657l-10 -22l-186 76l17 35z" />
    <glyph glyph-name="acutecomb" unicode="&#x301;" horiz-adv-x="0" 
d="M235 711l-186 -76l-10 22l178 89z" />
    <glyph glyph-name="uni0302" unicode="&#x302;" horiz-adv-x="0" 
d="M174 718l-118 -79l-17 19l126 95h19l124 -95l-16 -19z" />
    <glyph glyph-name="tildecomb" unicode="&#x303;" horiz-adv-x="0" 
d="M241 674c-56 0 -88 43 -122 43c-30 0 -39 -10 -59 -36l-21 12c21 34 45 54 80 54c40 0 78 -43 119 -43c20 0 35 11 57 43l21 -12c-22 -44 -49 -61 -75 -61z" />
    <glyph glyph-name="uni0304" unicode="&#x304;" horiz-adv-x="0" 
d="M39 682v32h218v-32h-218z" />
    <glyph glyph-name="uni0306" unicode="&#x306;" horiz-adv-x="0" 
d="M154 643c-61 0 -106 39 -115 85l25 5c12 -34 43 -58 90 -58s79 24 91 58l25 -5c-9 -46 -54 -85 -116 -85z" />
    <glyph glyph-name="uni0307" unicode="&#x307;" horiz-adv-x="0" 
d="M67 734c19 0 29 -13 29 -27c0 -15 -10 -28 -29 -28c-17 0 -28 13 -28 28c0 14 11 27 28 27z" />
    <glyph glyph-name="uni0308" unicode="&#x308;" horiz-adv-x="0" 
d="M66 723c17 0 28 -12 28 -27s-11 -27 -28 -27c-16 0 -27 12 -27 27s11 27 27 27zM241 723c17 0 28 -12 28 -27s-11 -27 -28 -27s-28 12 -28 27s11 27 28 27z" />
    <glyph glyph-name="uni030A" unicode="&#x30a;" horiz-adv-x="0" 
d="M127 810c52 0 88 -34 88 -86c0 -51 -36 -85 -88 -85s-88 34 -88 85c0 52 36 86 88 86zM127 784c-37 0 -57 -22 -57 -60c0 -37 20 -59 57 -59c36 0 57 22 57 59c0 38 -20 60 -57 60z" />
    <glyph glyph-name="uni030B" unicode="&#x30b;" horiz-adv-x="0" 
d="M140 778l-77 -126l-24 12l67 132zM253 779l-83 -131l-25 12l74 136z" />
    <glyph glyph-name="uni030C" unicode="&#x30c;" horiz-adv-x="0" 
d="M308 727l-124 -95h-19l-126 95l17 20l118 -80l118 80z" />
    <glyph glyph-name="uni0313" unicode="&#x313;" horiz-adv-x="0" 
d="M73 769c23 0 35 -14 35 -32c0 -16 -5 -27 -20 -59l-39 -86h-23l34 114c-16 5 -21 14 -21 31c0 18 13 32 34 32z" />
    <glyph glyph-name="uni0314" unicode="&#x314;" horiz-adv-x="0" 
d="M61 592c-23 0 -35 15 -35 33c0 16 5 26 20 58l39 86h23l-34 -113c16 -5 20 -15 20 -31c0 -18 -13 -33 -33 -33z" />
    <glyph glyph-name="uni0326" unicode="&#x326;" horiz-adv-x="0" 
d="M71 -90c22 0 34 -15 34 -33c0 -16 -5 -26 -19 -58l-39 -86h-24l34 113c-16 6 -20 15 -20 31c0 18 13 33 34 33z" />
    <glyph glyph-name="uni0327" unicode="&#x327;" horiz-adv-x="0" 
d="M103 -70c63 -4 91 -29 91 -70c0 -49 -42 -78 -92 -78c-32 0 -55 9 -72 20l14 25c13 -9 32 -15 58 -15c32 0 59 15 59 48c0 32 -27 46 -89 47l7 109h24v-86z" />
    <glyph glyph-name="tonos" unicode="&#x384;" horiz-adv-x="132" 
d="M102 739l-48 -136l-24 5l32 139z" />
    <glyph glyph-name="dieresistonos" unicode="&#x385;" horiz-adv-x="291" 
d="M198 828l-42 -121l-24 5l29 125zM57 693c17 0 28 -12 28 -27s-11 -27 -28 -27c-16 0 -27 12 -27 27s11 27 27 27zM234 693c16 0 27 -12 27 -27s-11 -27 -27 -27c-17 0 -28 12 -28 27s11 27 28 27z" />
    <glyph glyph-name="Alphatonos" unicode="&#x386;" horiz-adv-x="559" 
d="M108 547l-25 5l32 139l43 -9zM432 197h-307l-66 -197h-35l234 682h43l234 -682h-37zM421 229l-142 425l-143 -425h285z" />
    <glyph glyph-name="Epsilontonos" unicode="&#x388;" horiz-adv-x="496" 
d="M80 682l-50 -135l-25 5l32 139zM444 650h-290v-276h251v-31h-251v-311h301v-32h-336v682h330z" />
    <glyph glyph-name="Etatonos" unicode="&#x389;" horiz-adv-x="663" 
d="M80 682l-50 -135l-25 5l32 139zM509 344h-355v-344h-35v682h35v-306h355v306h35v-682h-35v344z" />
    <glyph glyph-name="Iotatonos" unicode="&#x38a;" horiz-adv-x="273" 
d="M80 682l-50 -135l-25 5l32 139zM154 0h-35v682h35v-682z" />
    <glyph glyph-name="Omicrontonos" unicode="&#x38c;" horiz-adv-x="690" 
d="M345 693c162 0 271 -122 271 -353c0 -222 -104 -350 -271 -350c-161 0 -271 124 -271 349c0 226 111 354 271 354zM94 682l-50 -135l-25 5l32 139zM345 660c-139 0 -235 -107 -235 -321c0 -209 97 -317 235 -317c146 0 235 108 235 318c0 215 -94 320 -235 320z" />
    <glyph glyph-name="Upsilontonos" unicode="&#x38e;" horiz-adv-x="503" 
d="M5 682l-50 -135l-25 5l32 139zM271 271v-271h-36v270l-216 412h40l195 -382l191 382h39z" />
    <glyph glyph-name="Omegatonos" unicode="&#x38f;" horiz-adv-x="690" 
d="M345 693c162 0 271 -122 271 -352c0 -173 -57 -262 -151 -308h129v-33h-187v32c112 43 173 137 173 309c0 214 -94 319 -235 319c-139 0 -235 -107 -235 -320c0 -168 61 -260 173 -308v-32h-187v33h130c-102 53 -152 142 -152 307c0 225 111 353 271 353zM106 682
l-50 -135l-25 5l32 139z" />
    <glyph glyph-name="iotadieresistonos" unicode="&#x390;" horiz-adv-x="254" 
d="M178 828l-42 -121l-24 5l29 125zM37 693c17 0 28 -12 28 -27s-11 -27 -28 -27c-16 0 -27 12 -27 27s11 27 27 27zM214 693c16 0 27 -12 27 -27s-11 -27 -27 -27c-17 0 -28 12 -28 27s11 27 28 27zM143 112c0 -56 14 -76 48 -89l-11 -28c-53 18 -71 48 -71 116v409h34
v-408z" />
    <glyph glyph-name="Alpha" unicode="&#x391;" horiz-adv-x="559" 
d="M432 197h-307l-66 -197h-35l234 682h43l234 -682h-37zM421 229l-142 425l-143 -425h285z" />
    <glyph glyph-name="Beta" unicode="&#x392;" horiz-adv-x="590" 
d="M374 362c85 -5 157 -57 157 -176c0 -120 -84 -186 -228 -186h-184v682h145c147 0 233 -55 233 -169c0 -90 -48 -138 -123 -151zM154 650v-275h162c87 0 145 52 145 137c0 96 -69 138 -193 138h-114zM304 32c119 0 191 50 191 154c0 109 -73 159 -174 159h-167v-313h150z
" />
    <glyph glyph-name="Gamma" unicode="&#x393;" horiz-adv-x="508" 
d="M492 649h-338v-649h-35v682h379z" />
    <glyph glyph-name="Delta" unicode="&#x394;" horiz-adv-x="569" 
d="M545 0h-521l239 682h44zM70 31h428l-213 623z" />
    <glyph glyph-name="Epsilon" unicode="&#x395;" horiz-adv-x="496" 
d="M444 650h-290v-276h251v-31h-251v-311h301v-32h-336v682h330z" />
    <glyph glyph-name="Zeta" unicode="&#x396;" horiz-adv-x="512" 
d="M462 652l-381 -619h370l-5 -33h-407v31l383 619h-345v32h385v-30z" />
    <glyph glyph-name="Eta" unicode="&#x397;" horiz-adv-x="663" 
d="M509 344h-355v-344h-35v682h35v-306h355v306h35v-682h-35v344z" />
    <glyph glyph-name="Theta" unicode="&#x398;" horiz-adv-x="690" 
d="M345 693c162 0 271 -122 271 -353c0 -222 -104 -350 -271 -350c-161 0 -271 124 -271 349c0 226 111 354 271 354zM345 660c-139 0 -235 -107 -235 -321c0 -209 97 -317 235 -317c146 0 235 108 235 318c0 215 -94 320 -235 320zM481 336h-272v31h272v-31z" />
    <glyph glyph-name="Iota" unicode="&#x399;" horiz-adv-x="273" 
d="M154 0h-35v682h35v-682z" />
    <glyph glyph-name="Kappa" unicode="&#x39a;" horiz-adv-x="518" 
d="M154 0h-35v682h35v-682zM201 367l317 -367h-43l-318 367l303 315h42z" />
    <glyph glyph-name="Lambda" unicode="&#x39b;" horiz-adv-x="559" 
d="M535 0h-37l-219 654l-220 -654h-35l234 682h43z" />
    <glyph glyph-name="Mu" unicode="&#x39c;" horiz-adv-x="766" 
d="M691 0h-34l-37 340c-12 112 -26 245 -31 311l-190 -568h-33l-194 568c-4 -59 -19 -195 -30 -303l-34 -348h-34l70 682h52l187 -557l183 557h53z" />
    <glyph glyph-name="Nu" unicode="&#x39d;" horiz-adv-x="665" 
d="M547 0h-44l-355 643c3 -40 5 -93 5 -213v-430h-34v682h44l354 -643c-2 39 -4 107 -4 198v445h34v-682z" />
    <glyph glyph-name="Xi" unicode="&#x39e;" horiz-adv-x="488" 
d="M419 650h-365v32h368zM376 342h-264v33h264v-33zM433 0h-379v35h379v-35z" />
    <glyph glyph-name="Omicron" unicode="&#x39f;" horiz-adv-x="690" 
d="M345 693c162 0 271 -122 271 -353c0 -222 -104 -350 -271 -350c-161 0 -271 124 -271 349c0 226 111 354 271 354zM345 660c-139 0 -235 -107 -235 -321c0 -209 97 -317 235 -317c146 0 235 108 235 318c0 215 -94 320 -235 320z" />
    <glyph glyph-name="Pi" unicode="&#x3a0;" horiz-adv-x="658" 
d="M539 0h-35v650h-350v-650h-35v682h420v-682z" />
    <glyph glyph-name="Rho" unicode="&#x3a1;" horiz-adv-x="562" 
d="M265 682c155 0 244 -59 244 -199c0 -151 -103 -207 -249 -207h-106v-276h-35v682h146zM263 308c122 0 209 41 209 174c0 125 -74 169 -207 169h-111v-343h109z" />
    <glyph glyph-name="Sigma" unicode="&#x3a3;" horiz-adv-x="487" 
d="M438 650h-339l224 -303v-15l-224 -300h339v-32h-389v20l237 319l-237 323v20h389v-32z" />
    <glyph glyph-name="Tau" unicode="&#x3a4;" horiz-adv-x="480" 
d="M464 649h-207v-649h-35v649h-207v33h455z" />
    <glyph glyph-name="Upsilon" unicode="&#x3a5;" horiz-adv-x="503" 
d="M271 271v-271h-36v270l-216 412h40l195 -382l191 382h39z" />
    <glyph glyph-name="Phi" unicode="&#x3a6;" horiz-adv-x="777" 
d="M733 342c0 -171 -108 -261 -327 -270v-72h-35v72c-219 6 -327 108 -327 269c0 172 108 261 327 271v70h35v-70c219 -6 327 -109 327 -270zM405 102c194 11 292 79 292 240c0 149 -99 234 -292 239v-479zM81 341c0 -149 98 -233 291 -238v477c-194 -10 -291 -79 -291 -239
z" />
    <glyph glyph-name="Chi" unicode="&#x3a7;" horiz-adv-x="492" 
d="M482 0h-40l-197 347l-192 -347h-39l210 369l-188 313h40l169 -291l167 291h38l-185 -312z" />
    <glyph glyph-name="Psi" unicode="&#x3a8;" horiz-adv-x="654" 
d="M609 682v-256c0 -139 -91 -215 -265 -220v-206h-35v206c-172 5 -265 82 -265 220v256h35v-253c0 -121 79 -186 230 -191v444h35v-444c153 5 230 70 230 191v253h35z" />
    <glyph glyph-name="Omega" unicode="&#x3a9;" horiz-adv-x="690" 
d="M345 693c162 0 271 -122 271 -352c0 -173 -57 -262 -151 -308h129v-33h-187v32c112 43 173 137 173 309c0 214 -94 319 -235 319c-139 0 -235 -107 -235 -320c0 -168 61 -260 173 -308v-32h-187v33h130c-102 53 -152 142 -152 307c0 225 111 353 271 353z" />
    <glyph glyph-name="Iotadieresis" unicode="&#x3aa;" horiz-adv-x="273" 
d="M48 849c17 0 28 -12 28 -27s-11 -27 -28 -27c-16 0 -27 12 -27 27s11 27 27 27zM223 849c17 0 28 -12 28 -27s-11 -27 -28 -27s-28 12 -28 27s11 27 28 27zM154 0h-35v682h35v-682z" />
    <glyph glyph-name="Upsilondieresis" unicode="&#x3ab;" horiz-adv-x="503" 
d="M160 849c17 0 28 -12 28 -27s-11 -27 -28 -27c-16 0 -27 12 -27 27s11 27 27 27zM335 849c17 0 28 -12 28 -27s-11 -27 -28 -27s-28 12 -28 27s11 27 28 27zM271 271v-271h-36v270l-216 412h40l195 -382l191 382h39z" />
    <glyph glyph-name="alphatonos" unicode="&#x3ac;" horiz-adv-x="588" 
d="M342 739l-48 -136l-24 5l32 139zM254 531c99 0 151 -46 180 -215l47 204h35l-61 -250l32 -195c6 -34 23 -44 40 -49l-13 -31c-27 7 -53 22 -60 68l-21 143c-30 -153 -92 -216 -186 -216c-110 0 -177 89 -177 273c0 157 72 268 184 268zM256 501c-83 0 -151 -85 -151 -238
c0 -168 57 -242 145 -242c73 0 136 52 172 247c-37 183 -80 233 -166 233z" />
    <glyph glyph-name="epsilontonos" unicode="&#x3ad;" horiz-adv-x="454" 
d="M318 739l-48 -136l-24 5l32 139zM257 531c72 0 118 -21 155 -46l-21 -24c-34 24 -74 39 -131 39c-87 0 -135 -41 -135 -105c0 -61 52 -107 137 -107h58l-4 -30h-57c-101 0 -154 -29 -154 -120c0 -75 60 -117 149 -117c72 0 108 21 152 55l19 -23
c-43 -36 -94 -63 -172 -63c-105 0 -184 54 -184 149c0 93 52 129 131 135c-73 16 -110 59 -110 123c0 85 71 134 167 134z" />
    <glyph glyph-name="etatonos" unicode="&#x3ae;" horiz-adv-x="585" 
d="M291 603l-24 5l32 139l40 -8zM335 531c94 0 141 -59 141 -160v-571l-34 6v560c0 92 -37 135 -109 135c-81 0 -135 -49 -183 -119v-382h-34v354c0 78 -10 127 -22 167l31 5c12 -30 19 -70 22 -107c45 66 106 112 188 112z" />
    <glyph glyph-name="iotatonos" unicode="&#x3af;" horiz-adv-x="254" 
d="M186 739l-48 -136l-24 5l32 139zM143 112c0 -56 14 -76 48 -89l-11 -28c-53 18 -71 48 -71 116v409h34v-408z" />
    <glyph glyph-name="upsilondieresistonos" unicode="&#x3b0;" horiz-adv-x="559" 
d="M329 828l-42 -121l-24 5l29 125zM188 693c17 0 28 -12 28 -27s-11 -27 -28 -27c-16 0 -27 12 -27 27s11 27 27 27zM365 693c16 0 27 -12 27 -27s-11 -27 -27 -27c-17 0 -28 12 -28 27s11 27 28 27zM444 520c13 -76 26 -163 26 -256c0 -191 -91 -274 -200 -274
c-91 0 -161 55 -161 166v364h34v-362c0 -97 56 -137 128 -137c81 0 164 57 164 243c0 91 -12 179 -26 256h35z" />
    <glyph glyph-name="alpha" unicode="&#x3b1;" horiz-adv-x="588" 
d="M254 531c99 0 151 -46 180 -215l47 204h35l-61 -250l32 -195c6 -34 23 -44 40 -49l-13 -31c-27 7 -53 22 -60 68l-21 143c-30 -153 -92 -216 -186 -216c-110 0 -177 89 -177 273c0 157 72 268 184 268zM256 501c-83 0 -151 -85 -151 -238c0 -168 57 -242 145 -242
c73 0 136 52 172 247c-37 183 -80 233 -166 233z" />
    <glyph glyph-name="beta" unicode="&#x3b2;" horiz-adv-x="579" 
d="M312 399c119 -1 212 -69 211 -201c-1 -133 -94 -208 -200 -208c-72 0 -126 23 -174 76v-260l-35 -6v741c0 127 78 198 183 198c89 0 178 -53 179 -170c0 -104 -61 -160 -164 -170zM321 21c94 0 168 69 167 177c-1 121 -88 186 -224 186h-45l5 29h42c67 0 174 26 175 154
c-1 106 -73 141 -144 141c-85 0 -148 -52 -148 -169v-435c53 -61 95 -83 172 -83z" />
    <glyph glyph-name="gamma" unicode="&#x3b3;" horiz-adv-x="447" 
d="M46 526c53 -69 114 -196 179 -475l167 476l36 -9l-184 -501c-29 -78 -34 -134 -13 -212l-27 -4c-26 73 -29 129 2 210c-74 286 -132 425 -192 504z" />
    <glyph glyph-name="delta" unicode="&#x3b4;" horiz-adv-x="559" 
d="M299 489c132 -49 191 -115 191 -253c0 -160 -75 -246 -209 -246c-130 0 -212 87 -212 246c0 125 65 205 166 247c-78 33 -112 71 -112 133c0 68 62 123 158 123c64 0 110 -17 155 -46l-20 -23c-43 26 -77 38 -131 38c-79 0 -127 -40 -127 -93c0 -56 27 -83 141 -126z
M281 21c115 0 174 71 174 215c0 125 -46 180 -188 235c-90 -35 -162 -108 -162 -235c0 -141 68 -215 176 -215z" />
    <glyph glyph-name="epsilon" unicode="&#x3b5;" horiz-adv-x="454" 
d="M257 531c72 0 118 -21 155 -46l-21 -24c-34 24 -74 39 -131 39c-87 0 -135 -41 -135 -105c0 -61 52 -107 137 -107h58l-4 -30h-57c-101 0 -154 -29 -154 -120c0 -75 60 -117 149 -117c72 0 108 21 152 55l19 -23c-43 -36 -94 -63 -172 -63c-105 0 -184 54 -184 149
c0 93 52 129 131 135c-73 16 -110 59 -110 123c0 85 71 134 167 134z" />
    <glyph glyph-name="zeta" unicode="&#x3b6;" horiz-adv-x="364" 
d="M385 696c-170 -144 -299 -279 -299 -442c0 -109 31 -145 139 -186c106 -41 148 -65 148 -127c0 -61 -40 -102 -124 -141l-15 25c60 27 103 59 103 114c0 45 -22 61 -133 103c-102 39 -155 83 -155 212c0 165 134 319 302 452c-32 -3 -76 -4 -124 -4h-182l4 32h329z" />
    <glyph glyph-name="eta" unicode="&#x3b7;" horiz-adv-x="585" 
d="M335 531c94 0 141 -59 141 -160v-571l-34 6v560c0 92 -37 135 -109 135c-81 0 -135 -49 -183 -119v-382h-34v354c0 78 -10 127 -22 167l31 5c12 -30 19 -70 22 -107c45 66 106 112 188 112z" />
    <glyph glyph-name="theta" unicode="&#x3b8;" horiz-adv-x="554" 
d="M280 739c144 0 205 -140 205 -370c0 -249 -62 -379 -210 -379c-143 0 -206 128 -206 377c0 246 72 372 211 372zM280 708c-118 0 -173 -107 -176 -324h346c-2 216 -54 324 -170 324zM275 21c120 0 172 111 175 333h-346c0 -220 57 -333 171 -333z" />
    <glyph glyph-name="iota" unicode="&#x3b9;" horiz-adv-x="254" 
d="M143 112c0 -56 14 -76 48 -89l-11 -28c-53 18 -71 48 -71 116v409h34v-408z" />
    <glyph glyph-name="kappa" unicode="&#x3ba;" horiz-adv-x="487" 
d="M443 516l-242 -245l209 -209c24 -25 38 -35 60 -43l-10 -27c-32 7 -46 20 -69 44l-233 234l256 261zM126 526c12 -39 24 -76 24 -178v-348h-34v354c0 78 -10 127 -22 167z" />
    <glyph glyph-name="lambda" unicode="&#x3bb;" horiz-adv-x="456" 
d="M87 739c119 -26 155 -89 183 -230c66 -337 130 -415 192 -503l-32 -12c-62 88 -125 171 -189 494l-169 -494l-33 8l182 518h15c-24 112 -55 169 -154 193z" />
    <glyph glyph-name="mu" unicode="&#x3bc;" horiz-adv-x="583" 
d="M459 -7c-15 42 -23 68 -27 120c-38 -67 -89 -123 -173 -123c-60 0 -102 28 -117 74c4 -48 6 -83 6 -133v-125l-34 -2v716h34v-374c0 -93 57 -125 111 -125c74 0 127 52 168 132v367h34v-346c0 -77 11 -127 29 -178z" />
    <glyph glyph-name="nu" unicode="&#x3bd;" horiz-adv-x="447" 
d="M46 526c54 -70 112 -211 174 -497l174 497l34 -8l-188 -518h-41c-68 291 -125 435 -185 515z" />
    <glyph glyph-name="xi" unicode="&#x3be;" horiz-adv-x="414" 
d="M267 739c67 0 109 -18 152 -47l-18 -25c-41 27 -75 41 -131 41c-96 0 -136 -57 -136 -124c0 -82 54 -127 146 -127h53l-5 -30h-56c-120 0 -177 -76 -177 -168c0 -104 44 -140 162 -184c109 -41 148 -72 148 -134c0 -61 -41 -102 -124 -141l-15 25c60 27 103 59 103 114
c0 45 -22 68 -128 109c-111 43 -182 79 -182 212c0 118 77 176 157 184c-72 16 -117 59 -117 140c0 90 65 155 168 155z" />
    <glyph glyph-name="omicron" unicode="&#x3bf;" horiz-adv-x="562" 
d="M282 531c130 0 211 -95 211 -269c0 -172 -83 -272 -212 -272c-132 0 -212 101 -212 269c0 172 84 272 213 272zM282 500c-108 0 -177 -82 -177 -241c0 -153 66 -238 176 -238c108 0 177 83 177 241c0 155 -66 238 -176 238z" />
    <glyph glyph-name="pi" unicode="&#x3c0;" horiz-adv-x="580" 
d="M442 488v-376c0 -56 14 -76 48 -88l-10 -29c-53 18 -72 48 -72 116v377h-237v-488h-34v488h-22c-35 0 -49 -1 -75 -9l-8 29c25 10 46 12 79 12h417v-32h-86z" />
    <glyph glyph-name="rho" unicode="&#x3c1;" horiz-adv-x="562" 
d="M296 531c126 0 192 -103 192 -267c0 -181 -76 -274 -192 -274c-71 0 -126 36 -158 89v-273l-34 -6v495c0 136 61 236 192 236zM293 21c98 0 158 79 158 243c0 153 -53 236 -156 236c-105 0 -157 -80 -157 -209v-171c34 -62 87 -99 155 -99z" />
    <glyph glyph-name="sigmafinal" unicode="&#x3c2;" horiz-adv-x="452" 
d="M284 531c57 0 97 -15 139 -51l-19 -23c-32 28 -68 42 -119 42c-103 0 -181 -81 -181 -232c0 -119 52 -166 163 -206c93 -33 133 -57 133 -120c0 -61 -41 -102 -124 -141l-15 25c60 27 103 59 103 114c0 46 -21 61 -118 96c-115 40 -177 100 -177 232
c0 160 86 264 215 264z" />
    <glyph glyph-name="sigma" unicode="&#x3c3;" horiz-adv-x="569" 
d="M514 492l-133 8c66 -39 112 -118 112 -238c0 -172 -83 -272 -212 -272c-132 0 -212 101 -212 269c0 161 77 269 249 269c64 0 133 -4 196 -8v-28zM458 262c0 123 -50 203 -121 240h-1c-168 1 -231 -89 -231 -243c0 -153 66 -238 176 -238c108 0 177 83 177 241z" />
    <glyph glyph-name="tau" unicode="&#x3c4;" horiz-adv-x="440" 
d="M231 488v-376c0 -56 14 -76 48 -88l-10 -29c-53 18 -72 48 -72 116v377h-108c-35 0 -49 -1 -75 -9l-8 29c24 10 46 12 79 12h342v-32h-196z" />
    <glyph glyph-name="upsilon" unicode="&#x3c5;" horiz-adv-x="559" 
d="M444 520c13 -76 26 -163 26 -256c0 -191 -91 -274 -200 -274c-91 0 -161 55 -161 166v364h34v-362c0 -97 56 -137 128 -137c81 0 164 57 164 243c0 91 -12 179 -26 256h35z" />
    <glyph glyph-name="phi" unicode="&#x3c6;" horiz-adv-x="710" 
d="M636 264c0 -185 -70 -266 -267 -274v-184l-34 -6v190c-170 10 -251 83 -251 254c0 114 29 204 56 276h34c-24 -64 -55 -158 -55 -276c0 -165 77 -214 216 -223v332c0 124 55 178 142 178c96 0 159 -66 159 -267zM369 20c163 6 231 67 231 244s-43 238 -123 238
c-63 0 -108 -32 -108 -156v-326z" />
    <glyph glyph-name="chi" unicode="&#x3c7;" horiz-adv-x="427" 
d="M412 -189l-32 -9l-167 352l-167 -351l-35 5l185 375c-84 193 -128 264 -187 332l33 13c56 -66 98 -133 171 -316l141 312l37 -4l-160 -338z" />
    <glyph glyph-name="psi" unicode="&#x3c8;" horiz-adv-x="738" 
d="M649 272c0 -200 -94 -273 -263 -282v-184l-34 -6v190c-164 2 -253 70 -253 210l1 320h34l-1 -320c0 -121 74 -177 219 -179v499h34v-499c151 6 228 72 228 250c0 89 -8 159 -26 249h35c17 -89 26 -157 26 -248z" />
    <glyph glyph-name="omega" unicode="&#x3c9;" horiz-adv-x="771" 
d="M633 520c30 -73 54 -177 54 -285c0 -195 -86 -245 -168 -245c-70 0 -125 37 -134 126c-13 -89 -66 -126 -134 -126c-99 0 -167 73 -167 247c0 125 30 216 56 283h35c-34 -86 -56 -179 -56 -284c0 -167 64 -215 132 -215c63 0 116 38 116 157v173l35 6v-180
c0 -120 55 -156 113 -156c67 0 137 39 137 212c0 124 -28 224 -54 287h35z" />
    <glyph glyph-name="iotadieresis" unicode="&#x3ca;" horiz-adv-x="254" 
d="M37 723c17 0 28 -12 28 -27s-11 -27 -28 -27c-16 0 -27 12 -27 27s11 27 27 27zM212 723c17 0 28 -12 28 -27s-11 -27 -28 -27s-28 12 -28 27s11 27 28 27zM143 112c0 -56 14 -76 48 -89l-11 -28c-53 18 -71 48 -71 116v409h34v-408z" />
    <glyph glyph-name="upsilondieresis" unicode="&#x3cb;" horiz-adv-x="559" 
d="M189 723c17 0 28 -12 28 -27s-11 -27 -28 -27c-16 0 -27 12 -27 27s11 27 27 27zM364 723c17 0 28 -12 28 -27s-11 -27 -28 -27s-28 12 -28 27s11 27 28 27zM444 520c13 -76 26 -163 26 -256c0 -191 -91 -274 -200 -274c-91 0 -161 55 -161 166v364h34v-362
c0 -97 56 -137 128 -137c81 0 164 57 164 243c0 91 -12 179 -26 256h35z" />
    <glyph glyph-name="omicrontonos" unicode="&#x3cc;" horiz-adv-x="562" 
d="M342 739l-48 -136l-24 5l32 139zM282 531c130 0 211 -95 211 -269c0 -172 -83 -272 -212 -272c-132 0 -212 101 -212 269c0 172 84 272 213 272zM282 500c-108 0 -177 -82 -177 -241c0 -153 66 -238 176 -238c108 0 177 83 177 241c0 155 -66 238 -176 238z" />
    <glyph glyph-name="upsilontonos" unicode="&#x3cd;" horiz-adv-x="559" 
d="M337 739l-48 -136l-24 5l32 139zM444 520c13 -76 26 -163 26 -256c0 -191 -91 -274 -200 -274c-91 0 -161 55 -161 166v364h34v-362c0 -97 56 -137 128 -137c81 0 164 57 164 243c0 91 -12 179 -26 256h35z" />
    <glyph glyph-name="omegatonos" unicode="&#x3ce;" horiz-adv-x="771" 
d="M449 739l-48 -136l-24 5l32 139zM633 520c30 -73 54 -177 54 -285c0 -195 -86 -245 -168 -245c-70 0 -125 37 -134 126c-13 -89 -66 -126 -134 -126c-99 0 -167 73 -167 247c0 125 30 216 56 283h35c-34 -86 -56 -179 -56 -284c0 -167 64 -215 132 -215
c63 0 116 38 116 157v173l35 6v-180c0 -120 55 -156 113 -156c67 0 137 39 137 212c0 124 -28 224 -54 287h35z" />
    <glyph glyph-name="uni0400" unicode="&#x400;" horiz-adv-x="496" 
d="M380 783l-10 -22l-186 76l17 35zM444 650h-290v-276h251v-31h-251v-311h301v-32h-336v682h330z" />
    <glyph glyph-name="uni0401" unicode="&#x401;" horiz-adv-x="496" 
d="M200 849c17 0 28 -12 28 -27s-11 -27 -28 -27c-16 0 -27 12 -27 27s11 27 27 27zM375 849c17 0 28 -12 28 -27s-11 -27 -28 -27s-28 12 -28 27s11 27 28 27zM444 650h-290v-276h251v-31h-251v-311h301v-32h-336v682h330z" />
    <glyph glyph-name="uni0402" unicode="&#x402;" horiz-adv-x="689" 
d="M449 426c124 0 186 -72 186 -184v-153c0 -106 -27 -146 -139 -195l-10 26c91 43 114 78 114 171v150c0 90 -45 152 -153 152c-78 0 -136 -32 -190 -98v-295h-35v649h-207v33h455l-6 -33h-207v-312c49 55 107 89 192 89z" />
    <glyph glyph-name="uni0403" unicode="&#x403;" horiz-adv-x="508" 
d="M245 761l-10 22l178 89l18 -35zM492 649h-338v-649h-35v682h379z" />
    <glyph glyph-name="uni0404" unicode="&#x404;" horiz-adv-x="553" 
d="M518 56c-43 -38 -97 -66 -176 -66c-153 0 -268 122 -268 354c0 233 121 349 271 349c76 0 121 -23 165 -60l-19 -25c-47 36 -83 52 -144 52c-125 0 -229 -86 -237 -288h283v-33h-283c1 -213 105 -316 233 -316c75 0 114 24 155 58z" />
    <glyph glyph-name="uni0405" unicode="&#x405;" horiz-adv-x="535" 
d="M265 693c85 0 135 -28 185 -73l-22 -24c-50 45 -95 64 -162 64c-95 0 -155 -52 -155 -128c0 -79 44 -113 166 -150c133 -40 194 -85 194 -198c0 -116 -88 -194 -214 -194c-90 0 -153 33 -209 83l23 24c49 -45 102 -75 185 -75c107 0 180 62 180 160
c0 95 -46 131 -172 170c-138 43 -189 88 -189 180c0 91 75 161 190 161z" />
    <glyph glyph-name="uni0406" unicode="&#x406;" horiz-adv-x="273" 
d="M154 0h-35v682h35v-682z" />
    <glyph glyph-name="uni0407" unicode="&#x407;" horiz-adv-x="273" 
d="M48 849c17 0 28 -12 28 -27s-11 -27 -28 -27c-16 0 -27 12 -27 27s11 27 27 27zM223 849c17 0 28 -12 28 -27s-11 -27 -28 -27s-28 12 -28 27s11 27 28 27zM154 0h-35v682h35v-682z" />
    <glyph glyph-name="uni0408" unicode="&#x408;" horiz-adv-x="281" 
d="M168 89c0 -106 -27 -146 -139 -195l-10 26c91 43 114 78 114 171v591h35v-593z" />
    <glyph glyph-name="uni0409" unicode="&#x409;" horiz-adv-x="883" 
d="M607 406c141 0 232 -60 232 -197c0 -148 -96 -209 -232 -209h-148v650h-248l-46 -360c-27 -216 -30 -266 -116 -296l-10 29c63 23 66 64 91 268l50 391h314v-276h113zM615 32c113 0 188 51 188 179c0 116 -77 163 -193 163h-116v-342h121z" />
    <glyph glyph-name="uni040A" unicode="&#x40a;" horiz-adv-x="924" 
d="M659 386c132 0 222 -60 222 -187c0 -138 -96 -199 -224 -199h-156v354h-347v-354h-35v682h35v-296h347v296h35v-296h123zM665 32c105 0 179 51 179 169c0 106 -75 153 -182 153h-126v-322h129z" />
    <glyph glyph-name="uni040B" unicode="&#x40b;" horiz-adv-x="689" 
d="M449 426c124 0 186 -71 186 -184v-242h-35v241c0 90 -45 152 -153 152c-78 0 -136 -32 -190 -98v-295h-35v649h-207v33h455l-6 -33h-207v-312c49 55 107 89 192 89z" />
    <glyph glyph-name="uni040C" unicode="&#x40c;" horiz-adv-x="541" 
d="M411 837l-186 -76l-10 22l178 89zM303 361l224 -361h-41l-214 345h-118v-345h-35v682h35v-306h119l200 306h38z" />
    <glyph glyph-name="uni040D" unicode="&#x40d;" horiz-adv-x="665" 
d="M426 783l-10 -22l-186 76l17 35zM547 0h-36v385c0 99 1 189 5 258l-355 -643h-42v682h35v-386c0 -89 -2 -197 -5 -257l355 643h43v-682z" />
    <glyph glyph-name="uni040E" unicode="&#x40e;" horiz-adv-x="504" 
d="M261 786c-61 0 -106 30 -115 76l25 5c12 -33 43 -50 90 -50s79 17 91 50l25 -5c-9 -46 -54 -76 -116 -76zM291 193c-60 -144 -80 -174 -185 -203l-8 28c83 24 106 44 159 176h-10l-233 488h38l218 -462l187 462h37z" />
    <glyph glyph-name="uni040F" unicode="&#x40f;" horiz-adv-x="655" 
d="M536 0h-191v-142h-25l-11 142h-190v682h35v-650h347v650h35v-682z" />
    <glyph glyph-name="uni0410" unicode="&#x410;" horiz-adv-x="559" 
d="M432 197h-307l-66 -197h-35l234 682h43l234 -682h-37zM421 229l-142 425l-143 -425h285z" />
    <glyph glyph-name="uni0411" unicode="&#x411;" horiz-adv-x="562" 
d="M277 409c145 0 232 -65 232 -197c0 -148 -96 -212 -233 -212h-157v682h326l-6 -32h-285v-241h123zM284 32c114 0 188 52 188 180c0 115 -72 166 -192 166h-126v-346h130z" />
    <glyph glyph-name="uni0412" unicode="&#x412;" horiz-adv-x="590" 
d="M374 362c85 -5 157 -57 157 -176c0 -120 -84 -186 -228 -186h-184v682h145c147 0 233 -55 233 -169c0 -90 -48 -138 -123 -151zM154 650v-275h162c87 0 145 52 145 137c0 96 -69 138 -193 138h-114zM304 32c119 0 191 50 191 154c0 109 -73 159 -174 159h-167v-313h150z
" />
    <glyph glyph-name="uni0413" unicode="&#x413;" horiz-adv-x="508" 
d="M492 649h-338v-649h-35v682h379z" />
    <glyph glyph-name="uni0414" unicode="&#x414;" horiz-adv-x="593" 
d="M522 32v-174h-25l-12 142h-454l-11 -142h-25v174h42c42 42 71 94 104 358l36 292h298v-650h47zM439 650h-230l-31 -259c-33 -253 -63 -316 -107 -359h368v618z" />
    <glyph glyph-name="uni0415" unicode="&#x415;" horiz-adv-x="496" 
d="M444 650h-290v-276h251v-31h-251v-311h301v-32h-336v682h330z" />
    <glyph glyph-name="uni0416" unicode="&#x416;" horiz-adv-x="740" 
d="M518 361l207 -361h-39l-198 345h-101v-345h-34v345h-103l-197 -345h-39l207 361l-191 321h39l182 -306h102v306h34v-306h101l185 306h37z" />
    <glyph glyph-name="uni0417" unicode="&#x417;" horiz-adv-x="519" 
d="M250 693c120 0 189 -68 189 -168c0 -90 -55 -139 -130 -155c83 -9 151 -64 151 -174c0 -130 -94 -206 -223 -206c-81 0 -149 31 -208 92l23 21c48 -49 108 -81 185 -81c109 0 187 63 187 173c0 101 -65 160 -184 158l-61 -1l5 32h51c100 0 168 49 168 142
c0 80 -58 134 -155 134c-71 0 -127 -29 -177 -73l-22 22c60 54 120 84 201 84z" />
    <glyph glyph-name="uni0418" unicode="&#x418;" horiz-adv-x="665" 
d="M547 0h-36v385c0 99 1 189 5 258l-355 -643h-42v682h35v-386c0 -89 -2 -197 -5 -257l355 643h43v-682z" />
    <glyph glyph-name="uni0419" unicode="&#x419;" horiz-adv-x="665" 
d="M333 786c-61 0 -106 30 -115 76l25 5c12 -33 43 -50 90 -50s79 17 91 50l25 -5c-9 -46 -54 -76 -116 -76zM547 0h-36v385c0 99 1 189 5 258l-355 -643h-42v682h35v-386c0 -89 -2 -197 -5 -257l355 643h43v-682z" />
    <glyph glyph-name="uni041A" unicode="&#x41a;" horiz-adv-x="541" 
d="M303 361l224 -361h-41l-214 345h-118v-345h-35v682h35v-306h119l200 306h38z" />
    <glyph glyph-name="uni041B" unicode="&#x41b;" horiz-adv-x="638" 
d="M520 682v-682h-35v650h-274l-46 -360c-27 -216 -30 -266 -116 -296l-10 29c63 23 66 64 91 268l50 391h340z" />
    <glyph glyph-name="uni041C" unicode="&#x41c;" horiz-adv-x="766" 
d="M691 0h-34l-37 340c-12 112 -26 245 -31 311l-190 -568h-33l-194 568c-4 -59 -19 -195 -30 -303l-34 -348h-34l70 682h52l187 -557l183 557h53z" />
    <glyph glyph-name="uni041D" unicode="&#x41d;" horiz-adv-x="663" 
d="M509 344h-355v-344h-35v682h35v-306h355v306h35v-682h-35v344z" />
    <glyph glyph-name="uni041E" unicode="&#x41e;" horiz-adv-x="690" 
d="M345 693c162 0 271 -122 271 -353c0 -222 -104 -350 -271 -350c-161 0 -271 124 -271 349c0 226 111 354 271 354zM345 660c-139 0 -235 -107 -235 -321c0 -209 97 -317 235 -317c146 0 235 108 235 318c0 215 -94 320 -235 320z" />
    <glyph glyph-name="uni041F" unicode="&#x41f;" horiz-adv-x="658" 
d="M539 0h-35v650h-350v-650h-35v682h420v-682z" />
    <glyph glyph-name="uni0420" unicode="&#x420;" horiz-adv-x="562" 
d="M265 682c155 0 244 -59 244 -199c0 -151 -103 -207 -249 -207h-106v-276h-35v682h146zM263 308c122 0 209 41 209 174c0 125 -74 169 -207 169h-111v-343h109z" />
    <glyph glyph-name="uni0421" unicode="&#x421;" horiz-adv-x="543" 
d="M345 693c76 0 121 -23 165 -60l-19 -25c-47 36 -83 52 -144 52c-130 0 -237 -93 -237 -319c0 -214 104 -318 233 -318c75 0 114 24 155 58l20 -25c-43 -38 -97 -66 -176 -66c-153 0 -268 122 -268 351c0 236 121 352 271 352z" />
    <glyph glyph-name="uni0422" unicode="&#x422;" horiz-adv-x="480" 
d="M464 649h-207v-649h-35v649h-207v33h455z" />
    <glyph glyph-name="uni0423" unicode="&#x423;" horiz-adv-x="504" 
d="M291 193c-60 -144 -80 -174 -185 -203l-8 28c83 24 106 44 159 176h-10l-233 488h38l218 -462l187 462h37z" />
    <glyph glyph-name="uni0424" unicode="&#x424;" horiz-adv-x="787" 
d="M738 349c0 -198 -110 -293 -327 -302v-67h-35v67c-219 6 -327 111 -327 300c0 197 111 292 327 302v67h35v-67c219 -6 327 -110 327 -300zM86 347c0 -177 98 -264 291 -269v540c-191 -11 -291 -85 -291 -271zM410 78c191 10 292 85 292 271c0 177 -99 264 -292 269v-540z
" />
    <glyph glyph-name="uni0425" unicode="&#x425;" horiz-adv-x="492" 
d="M482 0h-40l-197 347l-192 -347h-39l210 369l-188 313h40l169 -291l167 291h38l-185 -312z" />
    <glyph glyph-name="uni0426" unicode="&#x426;" horiz-adv-x="682" 
d="M600 32v-174h-25l-11 142h-445v682h35v-650h347v650h35v-650h64z" />
    <glyph glyph-name="uni0427" unicode="&#x427;" horiz-adv-x="581" 
d="M462 682v-682h-35v308c-47 -48 -106 -81 -188 -81c-112 0 -190 70 -190 189v266h35v-264c0 -101 62 -158 160 -158c75 0 142 34 183 86v336h35z" />
    <glyph glyph-name="uni0428" unicode="&#x428;" horiz-adv-x="902" 
d="M783 0h-664v682h35v-650h280v650h34v-650h280v650h35v-682z" />
    <glyph glyph-name="uni0429" unicode="&#x429;" horiz-adv-x="902" 
d="M847 32v-174h-25l-11 142h-692v682h35v-650h280v650h34v-650h280v650h35v-650h64z" />
    <glyph glyph-name="uni042A" unicode="&#x42a;" horiz-adv-x="595" 
d="M319 414c145 0 233 -65 233 -200c0 -150 -97 -214 -233 -214h-158v650h-161v32h197v-268h122zM327 32c114 0 188 52 188 182c0 117 -72 168 -193 168h-125v-350h130z" />
    <glyph glyph-name="uni042B" unicode="&#x42b;" horiz-adv-x="782" 
d="M266 414c146 0 233 -65 233 -200c0 -150 -96 -214 -233 -214h-147v682h35v-268h112zM663 682v-682h-35v682h35zM274 32c114 0 188 52 188 182c0 117 -72 168 -193 168h-115v-350h120z" />
    <glyph glyph-name="uni042C" unicode="&#x42c;" horiz-adv-x="552" 
d="M277 414c145 0 232 -65 232 -200c0 -150 -96 -214 -233 -214h-157v682h35v-268h123zM284 32c114 0 188 52 188 182c0 117 -72 168 -192 168h-126v-350h130z" />
    <glyph glyph-name="uni042D" unicode="&#x42d;" horiz-adv-x="529" 
d="M223 693c134 0 232 -104 232 -352c0 -226 -81 -351 -238 -351c-85 0 -139 34 -183 71l21 25c46 -37 89 -63 161 -63c133 0 204 107 204 316h-290v33h289c-9 202 -86 288 -197 288c-65 0 -108 -15 -169 -57l-19 24c55 43 114 66 189 66z" />
    <glyph glyph-name="uni042E" unicode="&#x42e;" horiz-adv-x="863" 
d="M528 693c160 0 262 -122 262 -353c0 -222 -98 -350 -262 -350c-156 0 -259 119 -261 350h-113v-340h-35v682h35v-310h113c9 202 112 321 261 321zM528 22c142 0 225 108 225 318c0 215 -87 320 -225 320c-135 0 -225 -109 -225 -315c0 -218 91 -323 225 -323z" />
    <glyph glyph-name="uni042F" unicode="&#x42f;" horiz-adv-x="586" 
d="M467 682v-682h-35v294h-190l-152 -294h-42l157 300c-87 24 -145 75 -145 184c0 125 77 198 253 198h154zM432 326v325h-118c-150 0 -217 -56 -217 -167c0 -103 66 -158 172 -158h163z" />
    <glyph glyph-name="uni0430" unicode="&#x430;" horiz-adv-x="531" 
d="M418 111c0 -67 14 -85 44 -97l-8 -24c-41 11 -63 36 -66 93c-37 -61 -92 -93 -166 -93c-99 0 -158 61 -158 154c0 108 82 167 206 167h114v57c0 88 -32 132 -129 132c-45 0 -91 -12 -142 -32l-9 28c52 22 100 35 153 35c113 0 161 -55 161 -160v-260zM224 21
c75 0 126 38 160 101v159h-107c-110 0 -177 -45 -177 -136c0 -79 48 -124 124 -124z" />
    <glyph glyph-name="uni0431" unicode="&#x431;" horiz-adv-x="556" 
d="M298 490c120 0 188 -90 188 -238c0 -178 -80 -262 -204 -262c-129 0 -213 95 -213 295c0 216 29 321 184 378c74 27 116 45 159 73l16 -25c-34 -25 -85 -47 -161 -75c-97 -37 -151 -83 -164 -271c32 62 95 125 195 125zM283 21c97 0 168 59 168 227
c0 141 -57 211 -155 211c-90 0 -156 -60 -191 -140v-39c-2 -168 61 -259 178 -259z" />
    <glyph glyph-name="uni0432" unicode="&#x432;" horiz-adv-x="540" 
d="M344 282c75 -8 127 -47 127 -129c0 -107 -88 -153 -206 -153h-151v515c45 9 99 16 151 16c119 0 176 -58 176 -135c0 -62 -39 -99 -97 -114zM266 500c-48 0 -82 -4 -118 -11v-195h141c74 0 117 37 117 101c0 60 -38 105 -140 105zM264 31c90 0 171 27 171 121
c0 78 -49 113 -139 113h-148v-234h116z" />
    <glyph glyph-name="uni0433" unicode="&#x433;" horiz-adv-x="419" 
d="M114 0v520h295l-4 -31h-257v-489h-34z" />
    <glyph glyph-name="uni0434" unicode="&#x434;" horiz-adv-x="547" 
d="M479 31v-173h-26l-11 142h-396l-11 -142h-26v173h31c48 35 77 65 92 284l14 205h287v-489h46zM397 490h-217l-12 -171c-14 -215 -44 -259 -93 -288h322v459z" />
    <glyph glyph-name="uni0435" unicode="&#x435;" horiz-adv-x="530" 
d="M466 283c0 -15 -1 -31 -2 -40h-360c7 -154 80 -222 179 -222c60 0 98 20 144 55l18 -24c-46 -39 -95 -62 -162 -62c-131 0 -214 98 -214 266c0 170 80 275 202 275c131 0 195 -99 195 -248zM432 272v23c0 121 -49 205 -159 205c-89 0 -164 -69 -169 -228h328z" />
    <glyph glyph-name="uni0436" unicode="&#x436;" horiz-adv-x="676" 
d="M483 279l159 -279h-37l-150 262h-101v-262h-32v262h-102l-151 -262h-35l159 279l-134 241h36l127 -229h100v229h32v-229h101l128 229h34z" />
    <glyph glyph-name="uni0437" unicode="&#x437;" horiz-adv-x="470" 
d="M218 531c91 0 157 -51 157 -134c0 -71 -43 -108 -112 -121c84 -5 138 -41 138 -128c0 -104 -75 -158 -183 -158c-88 0 -145 31 -189 69l20 21c42 -35 90 -59 168 -59c86 0 149 36 149 128c0 81 -62 111 -165 111h-57l4 29h46c96 0 146 40 146 107c0 63 -46 104 -123 104
c-68 0 -106 -16 -155 -46l-17 23c50 34 102 54 173 54z" />
    <glyph glyph-name="uni0438" unicode="&#x438;" horiz-adv-x="587" 
d="M473 0h-34v384c0 38 2 65 4 95l-289 -479h-40v520h34v-355c0 -40 -1 -77 -3 -123l289 478h39v-520z" />
    <glyph glyph-name="uni0439" unicode="&#x439;" horiz-adv-x="587" 
d="M293 660c-61 0 -106 30 -115 76l25 5c12 -33 43 -50 90 -50s79 17 91 50l25 -5c-9 -46 -54 -76 -116 -76zM473 0h-34v384c0 38 2 65 4 95l-289 -479h-40v520h34v-355c0 -40 -1 -77 -3 -123l289 478h39v-520z" />
    <glyph glyph-name="uni043A" unicode="&#x43a;" horiz-adv-x="484" 
d="M263 279l197 -279h-39l-187 263h-86v-263h-34v520h34v-228h86l159 228h38z" />
    <glyph glyph-name="uni043B" unicode="&#x43b;" horiz-adv-x="563" 
d="M449 520v-520h-34v492h-230l-16 -209c-17 -215 -21 -260 -108 -289l-10 28c63 22 68 60 84 264l18 234h296z" />
    <glyph glyph-name="uni043C" unicode="&#x43c;" horiz-adv-x="650" 
d="M576 0h-33l-28 344c-5 57 -8 99 -10 139l-165 -414h-33l-162 415c-2 -39 -5 -84 -10 -140l-28 -344h-33l45 520h42l163 -415l165 415h42z" />
    <glyph glyph-name="uni043D" unicode="&#x43d;" horiz-adv-x="585" 
d="M437 256h-289v-256h-34v520h34v-233h289v233h34v-520h-34v256z" />
    <glyph glyph-name="uni043E" unicode="&#x43e;" horiz-adv-x="562" 
d="M282 531c130 0 211 -95 211 -269c0 -172 -83 -272 -212 -272c-132 0 -212 101 -212 269c0 172 84 272 213 272zM282 500c-108 0 -177 -82 -177 -241c0 -153 66 -238 176 -238c108 0 177 83 177 241c0 155 -66 238 -176 238z" />
    <glyph glyph-name="uni043F" unicode="&#x43f;" horiz-adv-x="582" 
d="M434 489h-286v-489h-34v520h354v-520h-34v489z" />
    <glyph glyph-name="uni0440" unicode="&#x440;" horiz-adv-x="572" 
d="M311 531c121 0 186 -95 186 -267c0 -169 -67 -274 -193 -274c-72 0 -125 37 -156 81v-265l-34 -6v720h29l3 -78c38 51 93 89 165 89zM302 21c104 0 160 85 160 243c0 157 -53 236 -153 236c-74 0 -119 -39 -161 -96v-293c36 -53 86 -90 154 -90z" />
    <glyph glyph-name="uni0441" unicode="&#x441;" horiz-adv-x="463" 
d="M284 531c57 0 97 -15 139 -51l-19 -23c-32 28 -68 42 -119 42c-103 0 -180 -81 -180 -242c0 -157 76 -236 179 -236c52 0 91 18 126 48l18 -25c-37 -33 -85 -54 -142 -54c-130 0 -217 97 -217 267c0 169 86 274 215 274z" />
    <glyph glyph-name="uni0442" unicode="&#x442;" horiz-adv-x="420" 
d="M406 488h-178v-488h-34v488h-184v32h401z" />
    <glyph glyph-name="uni0443" unicode="&#x443;" horiz-adv-x="451" 
d="M249 -2c-40 -115 -77 -165 -191 -196l-4 27c104 30 127 72 163 171h-13l-185 520h38l170 -494l167 494h37z" />
    <glyph glyph-name="uni0444" unicode="&#x444;" horiz-adv-x="785" 
d="M552 531c118 0 159 -105 159 -267c0 -165 -52 -274 -162 -274c-60 0 -101 29 -139 77v-261l-34 -6v266c-36 -50 -78 -76 -137 -76c-108 0 -165 109 -165 274c0 164 58 267 169 267c58 0 99 -29 133 -82v290l34 -5v-283c37 52 86 80 142 80zM244 21c55 0 96 31 132 88v297
c-37 62 -76 94 -131 94c-85 0 -135 -81 -135 -236s46 -243 134 -243zM547 21c86 0 129 88 129 243s-38 236 -126 236c-58 0 -104 -33 -140 -93v-298c41 -57 83 -88 137 -88z" />
    <glyph glyph-name="uni0445" unicode="&#x445;" horiz-adv-x="440" 
d="M426 0h-41l-167 258l-164 -258h-40l184 278l-159 242h40l141 -221l142 221h39l-161 -241z" />
    <glyph glyph-name="uni0446" unicode="&#x446;" horiz-adv-x="590" 
d="M522 31v-173h-25l-11 142h-372v520h34v-489h279v489h34v-489h61z" />
    <glyph glyph-name="uni0447" unicode="&#x447;" horiz-adv-x="532" 
d="M419 520v-520h-34v257c-37 -41 -94 -75 -171 -75c-82 0 -150 44 -150 138v200h34v-196c0 -75 44 -112 123 -112c71 0 129 37 164 83v225h34z" />
    <glyph glyph-name="uni0448" unicode="&#x448;" horiz-adv-x="796" 
d="M682 0h-568v520h34v-489h233v489h33v-489h234v489h34v-520z" />
    <glyph glyph-name="uni0449" unicode="&#x449;" horiz-adv-x="796" 
d="M743 31v-173h-25l-11 142h-593v520h34v-489h233v489h33v-489h234v489h34v-489h61z" />
    <glyph glyph-name="uni044A" unicode="&#x44a;" horiz-adv-x="535" 
d="M299 339c140 0 197 -62 197 -164c0 -121 -80 -175 -191 -175h-149v490h-151v30h186l-1 -1v-180h109zM302 31c98 0 158 40 158 144c0 84 -42 134 -160 134h-110v-278h112z" />
    <glyph glyph-name="uni044B" unicode="&#x44b;" horiz-adv-x="700" 
d="M246 339c140 0 197 -62 197 -164c0 -121 -79 -175 -190 -175h-139v520h34v-181h98zM587 520v-520h-34v520h34zM249 31c98 0 159 40 159 144c0 84 -43 134 -161 134h-99v-278h101z" />
    <glyph glyph-name="uni044C" unicode="&#x44c;" horiz-adv-x="493" 
d="M256 339c140 0 197 -62 197 -164c0 -121 -79 -175 -190 -175h-149v520h34v-181h108zM259 31c98 0 159 40 159 144c0 84 -43 134 -161 134h-109v-278h111z" />
    <glyph glyph-name="uni044D" unicode="&#x44d;" horiz-adv-x="469" 
d="M203 531c125 0 197 -88 197 -267c0 -172 -70 -274 -195 -274c-75 0 -120 26 -161 58l19 23c36 -28 74 -50 138 -50c108 0 162 82 164 234h-247v29h247c-6 151 -66 216 -161 216c-58 0 -97 -18 -138 -47l-18 24c44 34 92 54 155 54z" />
    <glyph glyph-name="uni044E" unicode="&#x44e;" horiz-adv-x="749" 
d="M478 531c125 0 201 -100 201 -269s-78 -272 -202 -272s-198 101 -201 265h-128v-255h-34v520h34v-234h128c9 154 86 245 202 245zM477 21c104 0 167 84 167 241c0 153 -62 238 -166 238c-102 0 -167 -82 -167 -241c0 -152 62 -238 166 -238z" />
    <glyph glyph-name="uni044F" unicode="&#x44f;" horiz-adv-x="534" 
d="M420 520v-520h-34v225h-157l-128 -225h-38l132 232c-76 18 -115 69 -115 140c0 97 69 148 182 148h158zM386 255v236h-125c-88 1 -146 -36 -146 -118c0 -81 56 -118 134 -118h137z" />
    <glyph glyph-name="uni0450" unicode="&#x450;" horiz-adv-x="530" 
d="M365 650l-184 84l16 35l180 -96zM466 283c0 -15 -1 -31 -2 -40h-360c7 -154 80 -222 179 -222c60 0 98 20 144 55l18 -24c-46 -39 -95 -62 -162 -62c-131 0 -214 98 -214 266c0 170 80 275 202 275c131 0 195 -99 195 -248zM432 272v23c0 121 -49 205 -159 205
c-89 0 -164 -69 -169 -228h328z" />
    <glyph glyph-name="uni0451" unicode="&#x451;" horiz-adv-x="530" 
d="M186 669c-16 0 -27 12 -27 27s11 27 27 27c17 0 28 -12 28 -27s-11 -27 -28 -27zM361 669c-17 0 -28 12 -28 27s11 27 28 27s28 -12 28 -27s-11 -27 -28 -27zM466 283c0 -15 -1 -31 -2 -40h-360c7 -154 80 -222 179 -222c60 0 98 20 144 55l18 -24
c-46 -39 -95 -62 -162 -62c-131 0 -214 98 -214 266c0 170 80 275 202 275c131 0 195 -99 195 -248zM432 272v23c0 121 -49 205 -159 205c-89 0 -164 -69 -169 -228h328z" />
    <glyph glyph-name="uni0452" unicode="&#x452;" horiz-adv-x="588" 
d="M338 531c93 0 141 -61 141 -160v-361c0 -134 -39 -166 -122 -207l-10 25c69 36 98 65 98 182v356c0 90 -37 135 -110 135c-80 0 -134 -49 -182 -119v-382h-34v624h-75v30h75v80l34 6v-86h178v-30h-178v-201c46 65 105 108 185 108z" />
    <glyph glyph-name="uni0453" unicode="&#x453;" horiz-adv-x="419" 
d="M349 734l-184 -84l-12 23l180 96zM114 0v520h295l-4 -31h-257v-489h-34z" />
    <glyph glyph-name="uni0454" unicode="&#x454;" horiz-adv-x="474" 
d="M430 41c-40 -30 -88 -51 -147 -51c-127 0 -214 97 -214 271c0 168 89 270 217 270c55 0 95 -15 142 -51l-20 -24c-38 29 -73 44 -121 44c-99 0 -175 -74 -182 -217h260v-29h-261c1 -155 80 -233 179 -233c53 0 88 17 129 46z" />
    <glyph glyph-name="uni0455" unicode="&#x455;" horiz-adv-x="461" 
d="M231 531c62 0 110 -19 159 -58l-20 -23c-45 34 -82 50 -137 50c-76 0 -130 -39 -130 -101c0 -58 37 -83 136 -109c118 -32 164 -67 164 -154c0 -88 -73 -146 -175 -146c-83 0 -135 29 -180 66l21 23c46 -37 89 -58 159 -58c80 0 140 40 140 114c0 71 -32 97 -145 128
c-110 29 -155 64 -155 137c0 77 71 131 163 131z" />
    <glyph glyph-name="uni0456" unicode="&#x456;" horiz-adv-x="261" 
d="M130 734c19 0 29 -13 29 -27c0 -15 -10 -28 -29 -28c-17 0 -28 13 -28 28c0 14 11 27 28 27zM148 0h-34v520h34v-520z" />
    <glyph glyph-name="uni0457" unicode="&#x457;" horiz-adv-x="261" 
d="M42 723c17 0 28 -12 28 -27s-11 -27 -28 -27c-16 0 -27 12 -27 27s11 27 27 27zM217 723c17 0 28 -12 28 -27s-11 -27 -28 -27s-28 12 -28 27s11 27 28 27zM148 0h-34v520h34v-520z" />
    <glyph glyph-name="uni0458" unicode="&#x458;" horiz-adv-x="262" 
d="M130 734c19 0 29 -13 29 -27c0 -15 -10 -28 -29 -28c-17 0 -28 13 -28 28c0 14 11 27 28 27zM149 10c0 -134 -40 -166 -122 -207l-10 25c69 36 98 65 98 182v510h34v-510z" />
    <glyph glyph-name="uni0459" unicode="&#x459;" horiz-adv-x="768" 
d="M531 339c140 0 197 -62 197 -164c0 -121 -79 -175 -190 -175h-139v492h-214l-16 -209c-17 -215 -21 -260 -108 -289l-10 28c63 22 68 60 84 264l18 234h280v-181h98zM535 31c98 0 158 40 158 144c0 84 -42 134 -161 134h-99v-278h102z" />
    <glyph glyph-name="uni045A" unicode="&#x45a;" horiz-adv-x="796" 
d="M560 320c139 0 197 -62 197 -154c0 -112 -80 -166 -191 -166h-139v289h-279v-289h-34v520h34v-200h279v200h34v-200h99zM563 31c98 0 158 40 158 135c0 74 -42 123 -160 123h-100v-258h102z" />
    <glyph glyph-name="uni045B" unicode="&#x45b;" horiz-adv-x="587" 
d="M338 531c93 0 141 -61 141 -160v-371h-34v366c0 90 -37 135 -110 135c-80 0 -134 -49 -182 -119v-382h-34v624h-75v30h75v80l34 6v-86h180l-6 -30h-174v-201c46 65 105 108 185 108z" />
    <glyph glyph-name="uni045C" unicode="&#x45c;" horiz-adv-x="484" 
d="M365 734l-184 -84l-12 23l180 96zM263 279l197 -279h-39l-187 263h-86v-263h-34v520h34v-228h86l159 228h38z" />
    <glyph glyph-name="uni045D" unicode="&#x45d;" horiz-adv-x="587" 
d="M396 673l-12 -23l-184 84l16 35zM473 0h-34v384c0 38 2 65 4 95l-289 -479h-40v520h34v-355c0 -40 -1 -77 -3 -123l289 478h39v-520z" />
    <glyph glyph-name="uni045E" unicode="&#x45e;" horiz-adv-x="451" 
d="M217 660c-61 0 -106 30 -115 76l25 5c12 -33 43 -50 90 -50s79 17 91 50l25 -5c-9 -46 -54 -76 -116 -76zM249 -2c-40 -115 -77 -165 -191 -196l-4 27c104 30 127 72 163 171h-13l-185 520h38l170 -494l167 494h37z" />
    <glyph glyph-name="uni045F" unicode="&#x45f;" horiz-adv-x="575" 
d="M461 0h-156v-142h-25l-11 142h-155v520h34v-489h279v489h34v-520z" />
    <glyph glyph-name="uni0462" unicode="&#x462;" horiz-adv-x="666" 
d="M380 409c145 0 232 -65 232 -197c0 -148 -96 -212 -232 -212h-158v649h-207v33h455l-6 -33h-207v-240h123zM388 32c113 0 188 52 188 180c0 115 -72 166 -193 166h-126v-346h131z" />
    <glyph glyph-name="uni0463" unicode="&#x463;" horiz-adv-x="499" 
d="M255 342c144 0 204 -66 204 -165c0 -122 -73 -177 -199 -177h-141v478h-75v30h75v121l34 5v-126h145l-7 -30h-138v-136h102zM261 31c103 0 163 37 163 146c0 86 -50 134 -166 134h-105v-280h108z" />
    <glyph glyph-name="uni0472" unicode="&#x472;" horiz-adv-x="690" 
d="M345 693c162 0 271 -122 271 -355c0 -220 -104 -348 -271 -348c-161 0 -271 124 -271 347c0 228 111 356 271 356zM345 660c-133 0 -227 -98 -234 -296h469c-8 199 -100 296 -235 296zM345 22c145 0 234 107 235 312h-470c1 -205 98 -312 235 -312z" />
    <glyph glyph-name="uni0473" unicode="&#x473;" horiz-adv-x="562" 
d="M282 531c130 0 211 -95 211 -269c0 -172 -83 -272 -212 -272c-132 0 -212 101 -212 269c0 172 84 272 213 272zM282 500c-103 0 -172 -75 -178 -220h354c-5 143 -70 220 -176 220zM281 21c105 0 173 78 177 228h-354c3 -147 69 -228 177 -228z" />
    <glyph glyph-name="uni0474" unicode="&#x474;" horiz-adv-x="536" 
d="M532 682c-19 -28 -39 -66 -56 -120l-185 -562h-43l-224 682h37l209 -648l175 545c16 51 30 78 51 110z" />
    <glyph glyph-name="uni0475" unicode="&#x475;" horiz-adv-x="455" 
d="M448 519c-22 -26 -35 -62 -55 -118l-143 -401h-40l-191 520h38l174 -492l131 388c19 57 32 88 48 109z" />
    <glyph glyph-name="uni0490" unicode="&#x490;" horiz-adv-x="508" 
d="M498 792v-110l-6 -33h-338v-649h-35v682h345v110h34z" />
    <glyph glyph-name="uni0491" unicode="&#x491;" horiz-adv-x="419" 
d="M409 631v-111l-4 -31h-257v-489h-34v520h262v111h33z" />
    <glyph glyph-name="uni0492" unicode="&#x492;" horiz-adv-x="511" 
d="M157 649v-256h173v-30h-173v-363h-35v363h-98v30h98v289h379l-5 -33h-339z" />
    <glyph glyph-name="uni0493" unicode="&#x493;" horiz-adv-x="421" 
d="M150 489v-191h133v-29h-133v-269h-34v269h-68v29h68v222h296l-5 -31h-257z" />
    <glyph glyph-name="uni0496" unicode="&#x496;" horiz-adv-x="740" 
d="M753 32v-174h-25l-11 142h-31l-198 345h-101v-345h-34v345h-103l-197 -345h-39l207 361l-191 321h39l182 -306h102v306h34v-306h101l185 306h37l-192 -321l189 -329h46z" />
    <glyph glyph-name="uni0497" unicode="&#x497;" horiz-adv-x="676" 
d="M682 31v-173h-25l-11 142h-41l-150 262h-101v-262h-32v262h-102l-151 -262h-35l159 279l-134 241h36l127 -229h100v229h32v-229h101l128 229h34l-134 -241l141 -248h58z" />
    <glyph glyph-name="uni0498" unicode="&#x498;" horiz-adv-x="519" 
d="M460 196c0 -120 -80 -194 -194 -205c41 -26 67 -61 67 -115c0 -57 -34 -96 -101 -96c-29 0 -58 8 -74 18l13 27c17 -9 35 -15 63 -15c38 0 66 24 66 65c0 56 -32 87 -75 115c-76 3 -140 34 -196 92l23 21c48 -49 108 -81 185 -81c109 0 187 63 187 173
c0 101 -65 160 -184 158l-61 -1l5 32h51c100 0 168 49 168 142c0 80 -58 134 -155 134c-71 0 -127 -29 -177 -73l-22 22c60 54 120 84 201 84c120 0 189 -68 189 -168c0 -90 -55 -139 -130 -155c83 -9 151 -64 151 -174z" />
    <glyph glyph-name="uni0499" unicode="&#x499;" horiz-adv-x="470" 
d="M401 148c0 -98 -67 -152 -165 -157c40 -27 66 -61 66 -115c0 -57 -34 -96 -101 -96c-29 0 -58 8 -74 18l13 27c17 -9 35 -15 63 -15c38 0 66 24 66 65c0 56 -33 87 -76 116c-74 5 -124 34 -164 68l20 21c42 -35 90 -59 168 -59c86 0 149 36 149 128
c0 81 -62 111 -165 111h-57l4 29h46c96 0 146 40 146 107c0 63 -46 104 -123 104c-68 0 -106 -16 -155 -46l-17 23c50 34 102 54 173 54c91 0 157 -51 157 -134c0 -71 -43 -108 -112 -121c84 -5 138 -41 138 -128z" />
    <glyph glyph-name="uni049A" unicode="&#x49a;" horiz-adv-x="541" 
d="M553 32v-174h-25l-11 142h-31l-214 345h-118v-345h-35v682h35v-306h119l200 306h38l-208 -321l204 -329h46z" />
    <glyph glyph-name="uni049B" unicode="&#x49b;" horiz-adv-x="484" 
d="M497 31v-173h-25l-11 142h-40l-187 263h-86v-263h-34v520h34v-228h86l159 228h38l-168 -241l175 -248h59z" />
    <glyph glyph-name="uni049C" unicode="&#x49c;" horiz-adv-x="541" 
d="M527 0h-41l-213 345h-31v-187h-30v187h-58v-345h-35v682h35v-306h58v186h30v-186h32l199 306h38l-208 -321z" />
    <glyph glyph-name="uni049D" unicode="&#x49d;" horiz-adv-x="496" 
d="M458 0h-38l-153 263h-38v-139h-28v139h-53v-263h-34v520h34v-228h53v117h28v-117h38l125 228h36l-133 -241z" />
    <glyph glyph-name="uni04A0" unicode="&#x4a0;" horiz-adv-x="584" 
d="M569 0h-40l-214 345h-118v-345h-36v651h-161v31h197v-306h119l200 306h38l-209 -321z" />
    <glyph glyph-name="uni04A1" unicode="&#x4a1;" horiz-adv-x="528" 
d="M504 0h-40l-186 263h-87v-263h-34v490h-152v30h186v-228h87l158 228h39l-169 -241z" />
    <glyph glyph-name="uni04A2" unicode="&#x4a2;" horiz-adv-x="663" 
d="M608 32v-174h-25l-11 142h-63v344h-355v-344h-35v682h35v-306h355v306h35v-650h64z" />
    <glyph glyph-name="uni04A3" unicode="&#x4a3;" horiz-adv-x="585" 
d="M532 31v-173h-25l-11 142h-59v256h-289v-256h-34v520h34v-233h289v233h34v-489h61z" />
    <glyph glyph-name="uni04AA" unicode="&#x4aa;" horiz-adv-x="543" 
d="M354 -10c39 -26 65 -61 65 -114c0 -57 -34 -96 -101 -96c-29 0 -58 8 -74 18l13 27c17 -9 35 -15 63 -15c38 0 66 24 66 65c0 57 -34 88 -78 117c-136 17 -234 137 -234 349c0 236 121 352 271 352c76 0 121 -23 165 -60l-19 -25c-47 36 -83 52 -144 52
c-130 0 -237 -93 -237 -319c0 -214 104 -318 233 -318c75 0 114 24 155 58l20 -25c-41 -36 -91 -63 -164 -66z" />
    <glyph glyph-name="uni04AB" unicode="&#x4ab;" horiz-adv-x="463" 
d="M296 -10c39 -26 65 -61 65 -114c0 -57 -34 -96 -101 -96c-29 0 -58 8 -74 18l13 27c17 -9 35 -15 63 -15c38 0 66 24 66 65c0 57 -34 89 -80 118c-108 17 -179 111 -179 264c0 169 86 274 215 274c57 0 97 -15 139 -51l-19 -23c-32 28 -68 42 -119 42
c-103 0 -180 -81 -180 -242c0 -157 76 -236 179 -236c52 0 91 18 126 48l18 -25c-35 -31 -79 -51 -132 -54z" />
    <glyph glyph-name="uni04AC" unicode="&#x4ac;" horiz-adv-x="480" 
d="M257 649v-617h64v-174h-25l-11 142h-63v649h-207v33h455l-6 -33h-207z" />
    <glyph glyph-name="uni04AD" unicode="&#x4ad;" horiz-adv-x="420" 
d="M228 488v-457h61v-173h-25l-11 142h-59v488h-184v32h401l-5 -32h-178z" />
    <glyph glyph-name="uni04AE" unicode="&#x4ae;" horiz-adv-x="503" 
d="M271 271v-271h-36v270l-216 412h40l195 -382l191 382h39z" />
    <glyph glyph-name="uni04AF" unicode="&#x4af;" horiz-adv-x="455" 
d="M248 19v-213l-33 -6v219l-196 501h38l174 -464l167 464h37z" />
    <glyph glyph-name="uni04B0" unicode="&#x4b0;" horiz-adv-x="503" 
d="M280 289h112v-31h-121v-258h-36v258h-121v31h111l-206 393h40l195 -382l191 382h39z" />
    <glyph glyph-name="uni04B1" unicode="&#x4b1;" horiz-adv-x="455" 
d="M254 35h100v-30h-106v-199l-33 -6v205h-106v30h100l-190 485h38l174 -464l167 464h37z" />
    <glyph glyph-name="uni04B2" unicode="&#x4b2;" horiz-adv-x="492" 
d="M509 32v-174h-25l-11 142h-31l-197 347l-192 -347h-39l210 369l-188 313h40l169 -291l167 291h38l-185 -312l198 -338h46z" />
    <glyph glyph-name="uni04B3" unicode="&#x4b3;" horiz-adv-x="440" 
d="M465 31v-173h-25l-11 142h-44l-167 258l-164 -258h-40l184 278l-159 242h40l141 -221l142 221h39l-161 -241l165 -248h60z" />
    <glyph glyph-name="uni04B6" unicode="&#x4b6;" horiz-adv-x="581" 
d="M526 32v-174h-25l-11 142h-63v308c-47 -48 -106 -81 -188 -81c-112 0 -190 70 -190 189v266h35v-264c0 -101 62 -158 160 -158c75 0 142 34 183 86v336h35v-650h64z" />
    <glyph glyph-name="uni04B7" unicode="&#x4b7;" horiz-adv-x="532" 
d="M480 31v-173h-25l-11 142h-59v257c-37 -41 -94 -75 -171 -75c-82 0 -150 44 -150 138v200h34v-196c0 -75 44 -112 123 -112c71 0 129 37 164 83v225h34v-489h61z" />
    <glyph glyph-name="uni04B8" unicode="&#x4b8;" horiz-adv-x="559" 
d="M462 682v-682h-35v308c-40 -41 -89 -71 -154 -79v-114h-32v112h-2c-112 0 -190 70 -190 189v266h35v-264c0 -100 61 -157 157 -158v258h32v-256c63 7 119 39 154 84v336h35z" />
    <glyph glyph-name="uni04B9" unicode="&#x4b9;" horiz-adv-x="532" 
d="M419 520v-520h-34v257c-31 -34 -77 -64 -136 -73v-88h-30v86h-5c-82 0 -150 44 -150 138v200h34v-196c0 -74 43 -111 121 -112v164h30v-162c58 8 106 41 136 81v225h34z" />
    <glyph glyph-name="uni04BA" unicode="&#x4ba;" horiz-adv-x="585" 
d="M345 426c125 0 187 -71 187 -184v-242h-35v241c0 90 -45 152 -154 152c-77 0 -136 -32 -189 -98v-295h-35v682h35v-345c49 55 107 89 191 89z" />
    <glyph glyph-name="uni04BB" unicode="&#x4bb;" horiz-adv-x="577" 
d="M333 471c94 0 141 -59 141 -160v-311h-34v306c0 92 -37 135 -110 135c-80 0 -134 -49 -182 -119v-322h-34v734l34 6v-376c46 64 105 107 185 107z" />
    <glyph glyph-name="uni04C0" unicode="&#x4c0;" horiz-adv-x="273" 
d="M154 0h-35v682h35v-682z" />
    <glyph glyph-name="uni04C1" unicode="&#x4c1;" horiz-adv-x="740" 
d="M369 786c-61 0 -106 30 -115 76l25 5c12 -33 43 -50 90 -50s79 17 91 50l25 -5c-9 -46 -54 -76 -116 -76zM518 361l207 -361h-39l-198 345h-101v-345h-34v345h-103l-197 -345h-39l207 361l-191 321h39l182 -306h102v306h34v-306h101l185 306h37z" />
    <glyph glyph-name="uni04C2" unicode="&#x4c2;" horiz-adv-x="676" 
d="M338 660c-61 0 -106 30 -115 76l25 5c12 -33 43 -50 90 -50s79 17 91 50l25 -5c-9 -46 -54 -76 -116 -76zM483 279l159 -279h-37l-150 262h-101v-262h-32v262h-102l-151 -262h-35l159 279l-134 241h36l127 -229h100v229h32v-229h101l128 229h34z" />
    <glyph glyph-name="uni04CB" unicode="&#x4cb;" horiz-adv-x="581" 
d="M462 682v-682h-63l-11 -142h-25v174h64v276c-47 -48 -106 -81 -188 -81c-112 0 -190 70 -190 189v266h35v-264c0 -101 62 -158 160 -158c75 0 142 34 183 86v336h35z" />
    <glyph glyph-name="uni04CC" unicode="&#x4cc;" horiz-adv-x="532" 
d="M419 520v-520h-59l-11 -142h-26v173h62v226c-37 -40 -94 -75 -171 -75c-82 0 -150 44 -150 139v199h34v-195c0 -76 44 -112 123 -112c71 0 129 36 164 83v224h34z" />
    <glyph glyph-name="uni04CF" unicode="&#x4cf;" horiz-adv-x="278" 
d="M143 79c0 -39 13 -58 50 -58c12 0 24 3 36 8l10 -28c-13 -6 -32 -11 -51 -11c-49 0 -79 27 -79 90v654l34 5v-660z" />
    <glyph glyph-name="uni04D0" unicode="&#x4d0;" horiz-adv-x="559" 
d="M279 786c-61 0 -106 30 -115 76l25 5c12 -33 43 -50 90 -50s79 17 91 50l25 -5c-9 -46 -54 -76 -116 -76zM432 197h-307l-66 -197h-35l234 682h43l234 -682h-37zM421 229l-142 425l-143 -425h285z" />
    <glyph glyph-name="uni04D1" unicode="&#x4d1;" horiz-adv-x="531" 
d="M256 660c-61 0 -106 30 -115 76l25 5c12 -33 43 -50 90 -50s79 17 91 50l25 -5c-9 -46 -54 -76 -116 -76zM418 111c0 -67 14 -85 44 -97l-8 -24c-41 11 -63 36 -66 93c-37 -61 -92 -93 -166 -93c-99 0 -158 61 -158 154c0 108 82 167 206 167h114v57
c0 88 -32 132 -129 132c-45 0 -91 -12 -142 -32l-9 28c52 22 100 35 153 35c113 0 161 -55 161 -160v-260zM224 21c75 0 126 38 160 101v159h-107c-110 0 -177 -45 -177 -136c0 -79 48 -124 124 -124z" />
    <glyph glyph-name="uni04D2" unicode="&#x4d2;" horiz-adv-x="559" 
d="M191 795c-16 0 -27 12 -27 27s11 27 27 27c17 0 28 -12 28 -27s-11 -27 -28 -27zM366 795c-17 0 -28 12 -28 27s11 27 28 27s28 -12 28 -27s-11 -27 -28 -27zM432 197h-307l-66 -197h-35l234 682h43l234 -682h-37zM421 229l-142 425l-143 -425h285z" />
    <glyph glyph-name="uni04D3" unicode="&#x4d3;" horiz-adv-x="531" 
d="M168 669c-16 0 -27 12 -27 27s11 27 27 27c17 0 28 -12 28 -27s-11 -27 -28 -27zM343 669c-17 0 -28 12 -28 27s11 27 28 27s28 -12 28 -27s-11 -27 -28 -27zM418 111c0 -67 14 -85 44 -97l-8 -24c-41 11 -63 36 -66 93c-37 -61 -92 -93 -166 -93c-99 0 -158 61 -158 154
c0 108 82 167 206 167h114v57c0 88 -32 132 -129 132c-45 0 -91 -12 -142 -32l-9 28c52 22 100 35 153 35c113 0 161 -55 161 -160v-260zM224 21c75 0 126 38 160 101v159h-107c-110 0 -177 -45 -177 -136c0 -79 48 -124 124 -124z" />
    <glyph glyph-name="uni04D4" unicode="&#x4d4;" horiz-adv-x="761" 
d="M720 32v-32h-256l-50 192h-298l-73 -192h-35l263 682h397l-5 -32h-335l72 -276h261v-31h-253l82 -311h230zM405 224l-112 430l-164 -430h276z" />
    <glyph glyph-name="uni04D5" unicode="&#x4d5;" horiz-adv-x="846" 
d="M781 283c0 -15 -1 -31 -2 -40h-359c6 -154 79 -222 178 -222c61 0 99 20 144 55l18 -24c-46 -39 -95 -62 -162 -62c-84 0 -149 41 -184 115c-58 -84 -115 -115 -191 -115c-100 0 -159 61 -159 154c0 108 82 167 207 167h113v57c0 88 -32 132 -128 132
c-46 0 -92 -12 -142 -32l-10 28c53 22 100 35 153 35c98 0 147 -42 158 -122c34 81 94 122 175 122c127 0 191 -99 191 -248zM747 272v23c0 121 -49 205 -156 205c-92 0 -166 -69 -171 -228h327zM224 21c73 0 123 35 178 114c-12 35 -18 75 -18 121v25h-107
c-110 0 -177 -45 -177 -136c0 -79 48 -124 124 -124z" />
    <glyph glyph-name="uni04D6" unicode="&#x4d6;" horiz-adv-x="496" 
d="M288 786c-61 0 -106 30 -115 76l25 5c12 -33 43 -50 90 -50s79 17 91 50l25 -5c-9 -46 -54 -76 -116 -76zM444 650h-290v-276h251v-31h-251v-311h301v-32h-336v682h330z" />
    <glyph glyph-name="uni04D7" unicode="&#x4d7;" horiz-adv-x="530" 
d="M274 660c-61 0 -106 30 -115 76l25 5c12 -33 43 -50 90 -50s79 17 91 50l25 -5c-9 -46 -54 -76 -116 -76zM466 283c0 -15 -1 -31 -2 -40h-360c7 -154 80 -222 179 -222c60 0 98 20 144 55l18 -24c-46 -39 -95 -62 -162 -62c-131 0 -214 98 -214 266c0 170 80 275 202 275
c131 0 195 -99 195 -248zM432 272v23c0 121 -49 205 -159 205c-89 0 -164 -69 -169 -228h328z" />
    <glyph glyph-name="uni04D8" unicode="&#x4d8;" horiz-adv-x="647" 
d="M319 693c156 0 254 -103 254 -354c0 -239 -104 -349 -256 -349c-154 0 -253 114 -253 339c0 12 0 22 1 35h471c-8 212 -89 296 -218 296c-72 0 -128 -21 -191 -73l-20 25c64 54 127 81 212 81zM319 22c122 0 216 90 217 311h-435c0 -213 86 -311 218 -311z" />
    <glyph glyph-name="uni04D9" unicode="&#x4d9;" horiz-adv-x="535" 
d="M267 531c123 0 199 -87 199 -267c0 -188 -83 -274 -204 -274c-123 0 -198 98 -198 254c0 9 1 24 2 33h364c-3 154 -68 223 -164 223c-59 0 -101 -18 -150 -50l-17 23c48 36 102 58 168 58zM262 21c102 0 165 68 168 227h-331v-6c0 -142 61 -221 163 -221z" />
    <glyph glyph-name="uni04DA" unicode="&#x4da;" horiz-adv-x="647" 
d="M230 795c-16 0 -27 12 -27 27s11 27 27 27c17 0 28 -12 28 -27s-11 -27 -28 -27zM405 795c-17 0 -28 12 -28 27s11 27 28 27s28 -12 28 -27s-11 -27 -28 -27zM319 693c156 0 254 -103 254 -354c0 -239 -104 -349 -256 -349c-154 0 -253 114 -253 339c0 12 0 22 1 35h471
c-8 212 -89 296 -218 296c-72 0 -128 -21 -191 -73l-20 25c64 54 127 81 212 81zM319 22c122 0 216 90 217 311h-435c0 -213 86 -311 218 -311z" />
    <glyph glyph-name="uni04DB" unicode="&#x4db;" horiz-adv-x="535" 
d="M186 669c-16 0 -27 12 -27 27s11 27 27 27c17 0 28 -12 28 -27s-11 -27 -28 -27zM361 669c-17 0 -28 12 -28 27s11 27 28 27s28 -12 28 -27s-11 -27 -28 -27zM267 531c123 0 199 -87 199 -267c0 -188 -83 -274 -204 -274c-123 0 -198 98 -198 254c0 9 1 24 2 33h364
c-3 154 -68 223 -164 223c-59 0 -101 -18 -150 -50l-17 23c48 36 102 58 168 58zM262 21c102 0 165 68 168 227h-331v-6c0 -142 61 -221 163 -221z" />
    <glyph glyph-name="uni04DC" unicode="&#x4dc;" horiz-adv-x="740" 
d="M282 849c17 0 28 -12 28 -27s-11 -27 -28 -27c-16 0 -27 12 -27 27s11 27 27 27zM457 849c17 0 28 -12 28 -27s-11 -27 -28 -27s-28 12 -28 27s11 27 28 27zM518 361l207 -361h-39l-198 345h-101v-345h-34v345h-103l-197 -345h-39l207 361l-191 321h39l182 -306h102v306
h34v-306h101l185 306h37z" />
    <glyph glyph-name="uni04DD" unicode="&#x4dd;" horiz-adv-x="676" 
d="M250 723c17 0 28 -12 28 -27s-11 -27 -28 -27c-16 0 -27 12 -27 27s11 27 27 27zM425 723c17 0 28 -12 28 -27s-11 -27 -28 -27s-28 12 -28 27s11 27 28 27zM483 279l159 -279h-37l-150 262h-101v-262h-32v262h-102l-151 -262h-35l159 279l-134 241h36l127 -229h100v229
h32v-229h101l128 229h34z" />
    <glyph glyph-name="uni04DE" unicode="&#x4de;" horiz-adv-x="519" 
d="M170 849c17 0 28 -12 28 -27s-11 -27 -28 -27c-16 0 -27 12 -27 27s11 27 27 27zM345 849c17 0 28 -12 28 -27s-11 -27 -28 -27s-28 12 -28 27s11 27 28 27zM250 693c120 0 189 -68 189 -168c0 -90 -55 -139 -130 -155c83 -9 151 -64 151 -174c0 -130 -94 -206 -223 -206
c-81 0 -149 31 -208 92l23 21c48 -49 108 -81 185 -81c109 0 187 63 187 173c0 101 -65 160 -184 158l-61 -1l5 32h51c100 0 168 49 168 142c0 80 -58 134 -155 134c-71 0 -127 -29 -177 -73l-22 22c60 54 120 84 201 84z" />
    <glyph glyph-name="uni04DF" unicode="&#x4df;" horiz-adv-x="470" 
d="M126 723c17 0 28 -12 28 -27s-11 -27 -28 -27c-16 0 -27 12 -27 27s11 27 27 27zM301 723c17 0 28 -12 28 -27s-11 -27 -28 -27s-28 12 -28 27s11 27 28 27zM218 531c91 0 157 -51 157 -134c0 -71 -43 -108 -112 -121c84 -5 138 -41 138 -128c0 -104 -75 -158 -183 -158
c-88 0 -145 31 -189 69l20 21c42 -35 90 -59 168 -59c86 0 149 36 149 128c0 81 -62 111 -165 111h-57l4 29h46c96 0 146 40 146 107c0 63 -46 104 -123 104c-68 0 -106 -16 -155 -46l-17 23c50 34 102 54 173 54z" />
    <glyph glyph-name="uni04E2" unicode="&#x4e2;" horiz-adv-x="665" 
d="M225 808v32h218v-32h-218zM547 0h-36v385c0 99 1 189 5 258l-355 -643h-42v682h35v-386c0 -89 -2 -197 -5 -257l355 643h43v-682z" />
    <glyph glyph-name="uni04E3" unicode="&#x4e3;" horiz-adv-x="587" 
d="M185 682v32h218v-32h-218zM473 0h-34v384c0 38 2 65 4 95l-289 -479h-40v520h34v-355c0 -40 -1 -77 -3 -123l289 478h39v-520z" />
    <glyph glyph-name="uni04E4" unicode="&#x4e4;" horiz-adv-x="665" 
d="M245 849c17 0 28 -12 28 -27s-11 -27 -28 -27c-16 0 -27 12 -27 27s11 27 27 27zM420 849c17 0 28 -12 28 -27s-11 -27 -28 -27s-28 12 -28 27s11 27 28 27zM547 0h-36v385c0 99 1 189 5 258l-355 -643h-42v682h35v-386c0 -89 -2 -197 -5 -257l355 643h43v-682z" />
    <glyph glyph-name="uni04E5" unicode="&#x4e5;" horiz-adv-x="587" 
d="M205 723c17 0 28 -12 28 -27s-11 -27 -28 -27c-16 0 -27 12 -27 27s11 27 27 27zM380 723c17 0 28 -12 28 -27s-11 -27 -28 -27s-28 12 -28 27s11 27 28 27zM473 0h-34v384c0 38 2 65 4 95l-289 -479h-40v520h34v-355c0 -40 -1 -77 -3 -123l289 478h39v-520z" />
    <glyph glyph-name="uni04E6" unicode="&#x4e6;" horiz-adv-x="690" 
d="M243 849c17 0 28 -12 28 -27s-11 -27 -28 -27c-16 0 -27 12 -27 27s11 27 27 27zM418 849c17 0 28 -12 28 -27s-11 -27 -28 -27s-28 12 -28 27s11 27 28 27zM345 693c162 0 271 -122 271 -353c0 -222 -104 -350 -271 -350c-161 0 -271 124 -271 349
c0 226 111 354 271 354zM345 660c-139 0 -235 -107 -235 -321c0 -209 97 -317 235 -317c146 0 235 108 235 318c0 215 -94 320 -235 320z" />
    <glyph glyph-name="uni04E7" unicode="&#x4e7;" horiz-adv-x="562" 
d="M193 723c17 0 28 -12 28 -27s-11 -27 -28 -27c-16 0 -27 12 -27 27s11 27 27 27zM368 723c17 0 28 -12 28 -27s-11 -27 -28 -27s-28 12 -28 27s11 27 28 27zM282 531c130 0 211 -95 211 -269c0 -172 -83 -272 -212 -272c-132 0 -212 101 -212 269c0 172 84 272 213 272z
M282 500c-108 0 -177 -82 -177 -241c0 -153 66 -238 176 -238c108 0 177 83 177 241c0 155 -66 238 -176 238z" />
    <glyph glyph-name="uni04E8" unicode="&#x4e8;" horiz-adv-x="690" 
d="M345 693c162 0 271 -122 271 -355c0 -220 -104 -348 -271 -348c-161 0 -271 124 -271 347c0 228 111 356 271 356zM345 660c-133 0 -227 -98 -234 -296h469c-8 199 -100 296 -235 296zM345 22c145 0 234 107 235 312h-470c1 -205 98 -312 235 -312z" />
    <glyph glyph-name="uni04E9" unicode="&#x4e9;" horiz-adv-x="562" 
d="M282 531c130 0 211 -95 211 -269c0 -172 -83 -272 -212 -272c-132 0 -212 101 -212 269c0 172 84 272 213 272zM282 500c-103 0 -172 -75 -178 -220h354c-5 143 -70 220 -176 220zM281 21c105 0 173 78 177 228h-354c3 -147 69 -228 177 -228z" />
    <glyph glyph-name="uni04EA" unicode="&#x4ea;" horiz-adv-x="690" 
d="M257 795c-16 0 -27 12 -27 27s11 27 27 27c17 0 28 -12 28 -27s-11 -27 -28 -27zM432 795c-17 0 -28 12 -28 27s11 27 28 27s28 -12 28 -27s-11 -27 -28 -27zM345 693c162 0 271 -122 271 -355c0 -220 -104 -348 -271 -348c-161 0 -271 124 -271 347
c0 228 111 356 271 356zM345 660c-133 0 -227 -98 -234 -296h469c-8 199 -100 296 -235 296zM345 22c145 0 234 107 235 312h-470c1 -205 98 -312 235 -312z" />
    <glyph glyph-name="uni04EB" unicode="&#x4eb;" horiz-adv-x="562" 
d="M193 669c-16 0 -27 12 -27 27s11 27 27 27c17 0 28 -12 28 -27s-11 -27 -28 -27zM368 669c-17 0 -28 12 -28 27s11 27 28 27s28 -12 28 -27s-11 -27 -28 -27zM282 531c130 0 211 -95 211 -269c0 -172 -83 -272 -212 -272c-132 0 -212 101 -212 269c0 172 84 272 213 272z
M282 500c-103 0 -172 -75 -178 -220h354c-5 143 -70 220 -176 220zM281 21c105 0 173 78 177 228h-354c3 -147 69 -228 177 -228z" />
    <glyph glyph-name="uni04EC" unicode="&#x4ec;" horiz-adv-x="529" 
d="M134 795c-16 0 -27 12 -27 27s11 27 27 27c17 0 28 -12 28 -27s-11 -27 -28 -27zM309 795c-17 0 -28 12 -28 27s11 27 28 27s28 -12 28 -27s-11 -27 -28 -27zM223 693c134 0 232 -104 232 -352c0 -226 -81 -351 -238 -351c-85 0 -139 34 -183 71l21 25
c46 -37 89 -63 161 -63c133 0 204 107 204 316h-290v33h289c-9 202 -86 288 -197 288c-65 0 -108 -15 -169 -57l-19 24c55 43 114 66 189 66z" />
    <glyph glyph-name="uni04ED" unicode="&#x4ed;" horiz-adv-x="469" 
d="M128 669c-16 0 -27 12 -27 27s11 27 27 27c17 0 28 -12 28 -27s-11 -27 -28 -27zM303 669c-17 0 -28 12 -28 27s11 27 28 27s28 -12 28 -27s-11 -27 -28 -27zM203 531c125 0 197 -88 197 -267c0 -172 -70 -274 -195 -274c-75 0 -120 26 -161 58l19 23
c36 -28 74 -50 138 -50c108 0 162 82 164 234h-247v29h247c-6 151 -66 216 -161 216c-58 0 -97 -18 -138 -47l-18 24c44 34 92 54 155 54z" />
    <glyph glyph-name="uni04EE" unicode="&#x4ee;" horiz-adv-x="504" 
d="M153 808v32h218v-32h-218zM291 193c-60 -144 -80 -174 -185 -203l-8 28c83 24 106 44 159 176h-10l-233 488h38l218 -462l187 462h37z" />
    <glyph glyph-name="uni04EF" unicode="&#x4ef;" horiz-adv-x="451" 
d="M109 682v32h218v-32h-218zM249 -2c-40 -115 -77 -165 -191 -196l-4 27c104 30 127 72 163 171h-13l-185 520h38l170 -494l167 494h37z" />
    <glyph glyph-name="uni04F0" unicode="&#x4f0;" horiz-adv-x="504" 
d="M173 849c17 0 28 -12 28 -27s-11 -27 -28 -27c-16 0 -27 12 -27 27s11 27 27 27zM348 849c17 0 28 -12 28 -27s-11 -27 -28 -27s-28 12 -28 27s11 27 28 27zM291 193c-60 -144 -80 -174 -185 -203l-8 28c83 24 106 44 159 176h-10l-233 488h38l218 -462l187 462h37z" />
    <glyph glyph-name="uni04F1" unicode="&#x4f1;" horiz-adv-x="451" 
d="M130 723c17 0 28 -12 28 -27s-11 -27 -28 -27c-16 0 -27 12 -27 27s11 27 27 27zM305 723c17 0 28 -12 28 -27s-11 -27 -28 -27s-28 12 -28 27s11 27 28 27zM249 -2c-40 -115 -77 -165 -191 -196l-4 27c104 30 127 72 163 171h-13l-185 520h38l170 -494l167 494h37z" />
    <glyph glyph-name="uni04F2" unicode="&#x4f2;" horiz-adv-x="504" 
d="M286 904l-77 -126l-24 12l67 132zM399 905l-83 -131l-25 12l74 136zM291 193c-60 -144 -80 -174 -185 -203l-8 28c83 24 106 44 159 176h-10l-233 488h38l218 -462l187 462h37z" />
    <glyph glyph-name="uni04F3" unicode="&#x4f3;" horiz-adv-x="451" 
d="M248 778l-77 -126l-24 12l67 132zM361 779l-83 -131l-25 12l74 136zM249 -2c-40 -115 -77 -165 -191 -196l-4 27c104 30 127 72 163 171h-13l-185 520h38l170 -494l167 494h37z" />
    <glyph glyph-name="uni04F4" unicode="&#x4f4;" horiz-adv-x="581" 
d="M168 795c-16 0 -27 12 -27 27s11 27 27 27c17 0 28 -12 28 -27s-11 -27 -28 -27zM343 795c-17 0 -28 12 -28 27s11 27 28 27s28 -12 28 -27s-11 -27 -28 -27zM462 682v-682h-35v308c-47 -48 -106 -81 -188 -81c-112 0 -190 70 -190 189v266h35v-264
c0 -101 62 -158 160 -158c75 0 142 34 183 86v336h35z" />
    <glyph glyph-name="uni04F5" unicode="&#x4f5;" horiz-adv-x="532" 
d="M154 669c-16 0 -27 12 -27 27s11 27 27 27c17 0 28 -12 28 -27s-11 -27 -28 -27zM329 669c-17 0 -28 12 -28 27s11 27 28 27s28 -12 28 -27s-11 -27 -28 -27zM419 520v-520h-34v257c-37 -41 -94 -75 -171 -75c-82 0 -150 44 -150 138v200h34v-196c0 -75 44 -112 123 -112
c71 0 129 37 164 83v225h34z" />
    <glyph glyph-name="uni04F6" unicode="&#x4f6;" horiz-adv-x="508" 
d="M154 649v-617h64v-174h-25l-11 142h-63v682h379l-6 -33h-338z" />
    <glyph glyph-name="uni04F7" unicode="&#x4f7;" horiz-adv-x="419" 
d="M148 489v-458h61v-173h-25l-11 142h-59v520h295l-4 -31h-257z" />
    <glyph glyph-name="uni04F8" unicode="&#x4f8;" horiz-adv-x="782" 
d="M307 795c-16 0 -27 12 -27 27s11 27 27 27c17 0 28 -12 28 -27s-11 -27 -28 -27zM482 849c17 0 28 -12 28 -27s-11 -27 -28 -27s-28 12 -28 27s11 27 28 27zM266 414c146 0 233 -65 233 -200c0 -150 -96 -214 -233 -214h-147v682h35v-268h112zM663 682v-682h-35v682h35z
M274 32c114 0 188 52 188 182c0 117 -72 168 -193 168h-115v-350h120z" />
    <glyph glyph-name="uni04F9" unicode="&#x4f9;" horiz-adv-x="700" 
d="M262 669c-16 0 -27 12 -27 27s11 27 27 27c17 0 28 -12 28 -27s-11 -27 -28 -27zM437 723c17 0 28 -12 28 -27s-11 -27 -28 -27s-28 12 -28 27s11 27 28 27zM246 339c140 0 197 -62 197 -164c0 -121 -79 -175 -190 -175h-139v520h34v-181h98zM587 520v-520h-34v520h34z
M249 31c98 0 159 40 159 144c0 84 -43 134 -161 134h-99v-278h101z" />
    <glyph glyph-name="uni051C" unicode="&#x51c;" horiz-adv-x="798" 
d="M606 0h-42l-165 647l-166 -647h-41l-158 682h37l144 -647l163 647h42l165 -647l143 647h36z" />
    <glyph glyph-name="uni051D" unicode="&#x51d;" horiz-adv-x="685" 
d="M523 0h-46l-133 487l-133 -487h-46l-136 520h37l123 -489l135 489h41l135 -490l121 490h35z" />
    <glyph glyph-name="uni0524" unicode="&#x524;" horiz-adv-x="658" 
d="M603 32v-174h-25l-11 142h-63v650h-350v-650h-35v682h420v-650h64z" />
    <glyph glyph-name="uni0525" unicode="&#x525;" horiz-adv-x="582" 
d="M529 31v-173h-25l-11 142h-59v489h-286v-489h-34v520h354v-489h61z" />
    <glyph glyph-name="uni0526" unicode="&#x526;" horiz-adv-x="585" 
d="M596 32v-174h-25l-11 142h-63v241c0 90 -45 152 -154 152c-77 0 -136 -32 -189 -98v-295h-35v682h35v-345c49 55 107 89 191 89c125 0 187 -71 187 -184v-210h64z" />
    <glyph glyph-name="uni0527" unicode="&#x527;" horiz-adv-x="577" 
d="M534 31v-173h-25l-11 142h-58v306c0 92 -37 135 -110 135c-80 0 -134 -49 -182 -119v-322h-34v734l34 6v-376c46 64 105 107 185 107c94 0 141 -59 141 -160v-280h60z" />
    <glyph glyph-name="Wgrave" unicode="&#x1e80;" horiz-adv-x="798" 
d="M491 783l-10 -22l-186 76l17 35zM606 0h-42l-165 647l-166 -647h-41l-158 682h37l144 -647l163 647h42l165 -647l143 647h36z" />
    <glyph glyph-name="wgrave" unicode="&#x1e81;" horiz-adv-x="685" 
d="M446 673l-12 -23l-184 84l16 35zM523 0h-46l-133 487l-133 -487h-46l-136 520h37l123 -489l135 489h41l135 -490l121 490h35z" />
    <glyph glyph-name="Wacute" unicode="&#x1e82;" horiz-adv-x="798" 
d="M502 837l-186 -76l-10 22l178 89zM606 0h-42l-165 647l-166 -647h-41l-158 682h37l144 -647l163 647h42l165 -647l143 647h36z" />
    <glyph glyph-name="wacute" unicode="&#x1e83;" horiz-adv-x="685" 
d="M431 734l-184 -84l-12 23l180 96zM523 0h-46l-133 487l-133 -487h-46l-136 520h37l123 -489l135 489h41l135 -490l121 490h35z" />
    <glyph glyph-name="Wdieresis" unicode="&#x1e84;" horiz-adv-x="798" 
d="M311 849c17 0 28 -12 28 -27s-11 -27 -28 -27c-16 0 -27 12 -27 27s11 27 27 27zM486 849c17 0 28 -12 28 -27s-11 -27 -28 -27s-28 12 -28 27s11 27 28 27zM606 0h-42l-165 647l-166 -647h-41l-158 682h37l144 -647l163 647h42l165 -647l143 647h36z" />
    <glyph glyph-name="wdieresis" unicode="&#x1e85;" horiz-adv-x="685" 
d="M255 723c17 0 28 -12 28 -27s-11 -27 -28 -27c-16 0 -27 12 -27 27s11 27 27 27zM430 723c17 0 28 -12 28 -27s-11 -27 -28 -27s-28 12 -28 27s11 27 28 27zM523 0h-46l-133 487l-133 -487h-46l-136 520h37l123 -489l135 489h41l135 -490l121 490h35z" />
    <glyph glyph-name="Ygrave" unicode="&#x1ef2;" horiz-adv-x="503" 
d="M340 783l-10 -22l-186 76l17 35zM271 271v-271h-36v270l-216 412h40l195 -382l191 382h39z" />
    <glyph glyph-name="ygrave" unicode="&#x1ef3;" horiz-adv-x="451" 
d="M321 673l-12 -23l-184 84l16 35zM249 -2c-40 -115 -77 -165 -191 -196l-4 27c104 30 127 72 163 171h-13l-185 520h38l170 -494l167 494h37z" />
    <glyph glyph-name="uni1F70" unicode="&#x1f70;" horiz-adv-x="588" 
d="M385 673l-12 -23l-184 84l16 35zM254 531c99 0 151 -46 180 -215l47 204h35l-61 -250l32 -195c6 -34 23 -44 40 -49l-13 -31c-27 7 -53 22 -60 68l-21 143c-30 -153 -92 -216 -186 -216c-110 0 -177 89 -177 273c0 157 72 268 184 268zM256 501c-83 0 -151 -85 -151 -238
c0 -168 57 -242 145 -242c73 0 136 52 172 247c-37 183 -80 233 -166 233z" />
    <glyph glyph-name="uni1F71" unicode="&#x1f71;" horiz-adv-x="588" 
d="M369 734l-184 -84l-12 23l180 96zM254 531c99 0 151 -46 180 -215l47 204h35l-61 -250l32 -195c6 -34 23 -44 40 -49l-13 -31c-27 7 -53 22 -60 68l-21 143c-30 -153 -92 -216 -186 -216c-110 0 -177 89 -177 273c0 157 72 268 184 268zM256 501
c-83 0 -151 -85 -151 -238c0 -168 57 -242 145 -242c73 0 136 52 172 247c-37 183 -80 233 -166 233z" />
    <glyph glyph-name="uni1F72" unicode="&#x1f72;" horiz-adv-x="454" 
d="M360 673l-12 -23l-184 84l16 35zM257 531c72 0 118 -21 155 -46l-21 -24c-34 24 -74 39 -131 39c-87 0 -135 -41 -135 -105c0 -61 52 -107 137 -107h58l-4 -30h-57c-101 0 -154 -29 -154 -120c0 -75 60 -117 149 -117c72 0 108 21 152 55l19 -23
c-43 -36 -94 -63 -172 -63c-105 0 -184 54 -184 149c0 93 52 129 131 135c-73 16 -110 59 -110 123c0 85 71 134 167 134z" />
    <glyph glyph-name="uni1F73" unicode="&#x1f73;" horiz-adv-x="454" 
d="M345 734l-184 -84l-12 23l180 96zM257 531c72 0 118 -21 155 -46l-21 -24c-34 24 -74 39 -131 39c-87 0 -135 -41 -135 -105c0 -61 52 -107 137 -107h58l-4 -30h-57c-101 0 -154 -29 -154 -120c0 -75 60 -117 149 -117c72 0 108 21 152 55l19 -23
c-43 -36 -94 -63 -172 -63c-105 0 -184 54 -184 149c0 93 52 129 131 135c-73 16 -110 59 -110 123c0 85 71 134 167 134z" />
    <glyph glyph-name="uni1F74" unicode="&#x1f74;" horiz-adv-x="585" 
d="M370 650l-184 84l16 35l180 -96zM335 531c94 0 141 -59 141 -160v-571l-34 6v560c0 92 -37 135 -109 135c-81 0 -135 -49 -183 -119v-382h-34v354c0 78 -10 127 -22 167l31 5c12 -30 19 -70 22 -107c45 66 106 112 188 112z" />
    <glyph glyph-name="uni1F75" unicode="&#x1f75;" horiz-adv-x="585" 
d="M183 650l-12 23l180 96l16 -35zM335 531c94 0 141 -59 141 -160v-571l-34 6v560c0 92 -37 135 -109 135c-81 0 -135 -49 -183 -119v-382h-34v354c0 78 -10 127 -22 167l31 5c12 -30 19 -70 22 -107c45 66 106 112 188 112z" />
    <glyph glyph-name="uni1F76" unicode="&#x1f76;" horiz-adv-x="254" 
d="M229 673l-12 -23l-184 84l16 35zM143 112c0 -56 14 -76 48 -89l-11 -28c-53 18 -71 48 -71 116v409h34v-408z" />
    <glyph glyph-name="uni1F77" unicode="&#x1f77;" horiz-adv-x="254" 
d="M213 734l-184 -84l-12 23l180 96zM143 112c0 -56 14 -76 48 -89l-11 -28c-53 18 -71 48 -71 116v409h34v-408z" />
    <glyph glyph-name="uni1F78" unicode="&#x1f78;" horiz-adv-x="562" 
d="M380 673l-12 -23l-184 84l16 35zM282 531c130 0 211 -95 211 -269c0 -172 -83 -272 -212 -272c-132 0 -212 101 -212 269c0 172 84 272 213 272zM282 500c-108 0 -177 -82 -177 -241c0 -153 66 -238 176 -238c108 0 177 83 177 241c0 155 -66 238 -176 238z" />
    <glyph glyph-name="uni1F79" unicode="&#x1f79;" horiz-adv-x="562" 
d="M365 734l-184 -84l-12 23l180 96zM282 531c130 0 211 -95 211 -269c0 -172 -83 -272 -212 -272c-132 0 -212 101 -212 269c0 172 84 272 213 272zM282 500c-108 0 -177 -82 -177 -241c0 -153 66 -238 176 -238c108 0 177 83 177 241c0 155 -66 238 -176 238z" />
    <glyph glyph-name="uni1F7A" unicode="&#x1f7a;" horiz-adv-x="559" 
d="M380 673l-12 -23l-184 84l16 35zM444 520c13 -76 26 -163 26 -256c0 -191 -91 -274 -200 -274c-91 0 -161 55 -161 166v364h34v-362c0 -97 56 -137 128 -137c81 0 164 57 164 243c0 91 -12 179 -26 256h35z" />
    <glyph glyph-name="uni1F7B" unicode="&#x1f7b;" horiz-adv-x="559" 
d="M364 734l-184 -84l-12 23l180 96zM444 520c13 -76 26 -163 26 -256c0 -191 -91 -274 -200 -274c-91 0 -161 55 -161 166v364h34v-362c0 -97 56 -137 128 -137c81 0 164 57 164 243c0 91 -12 179 -26 256h35z" />
    <glyph glyph-name="uni1F7C" unicode="&#x1f7c;" horiz-adv-x="771" 
d="M491 673l-12 -23l-184 84l16 35zM633 520c30 -73 54 -177 54 -285c0 -195 -86 -245 -168 -245c-70 0 -125 37 -134 126c-13 -89 -66 -126 -134 -126c-99 0 -167 73 -167 247c0 125 30 216 56 283h35c-34 -86 -56 -179 -56 -284c0 -167 64 -215 132 -215
c63 0 116 38 116 157v173l35 6v-180c0 -120 55 -156 113 -156c67 0 137 39 137 212c0 124 -28 224 -54 287h35z" />
    <glyph glyph-name="uni1F7D" unicode="&#x1f7d;" horiz-adv-x="771" 
d="M476 734l-184 -84l-12 23l180 96zM633 520c30 -73 54 -177 54 -285c0 -195 -86 -245 -168 -245c-70 0 -125 37 -134 126c-13 -89 -66 -126 -134 -126c-99 0 -167 73 -167 247c0 125 30 216 56 283h35c-34 -86 -56 -179 -56 -284c0 -167 64 -215 132 -215
c63 0 116 38 116 157v173l35 6v-180c0 -120 55 -156 113 -156c67 0 137 39 137 212c0 124 -28 224 -54 287h35z" />
    <glyph glyph-name="uni1FB0" unicode="&#x1fb0;" horiz-adv-x="588" 
d="M281 660c-61 0 -106 39 -115 94l25 6c12 -44 43 -69 90 -69s79 25 91 69l25 -6c-9 -55 -54 -94 -116 -94zM254 531c99 0 151 -46 180 -215l47 204h35l-61 -250l32 -195c6 -34 23 -44 40 -49l-13 -31c-27 7 -53 22 -60 68l-21 143c-30 -153 -92 -216 -186 -216
c-110 0 -177 89 -177 273c0 157 72 268 184 268zM256 501c-83 0 -151 -85 -151 -238c0 -168 57 -242 145 -242c73 0 136 52 172 247c-37 183 -80 233 -166 233z" />
    <glyph glyph-name="uni1FB1" unicode="&#x1fb1;" horiz-adv-x="588" 
d="M173 682v32h218v-32h-218zM254 531c99 0 151 -46 180 -215l47 204h35l-61 -250l32 -195c6 -34 23 -44 40 -49l-13 -31c-27 7 -53 22 -60 68l-21 143c-30 -153 -92 -216 -186 -216c-110 0 -177 89 -177 273c0 157 72 268 184 268zM256 501c-83 0 -151 -85 -151 -238
c0 -168 57 -242 145 -242c73 0 136 52 172 247c-37 183 -80 233 -166 233z" />
    <glyph glyph-name="uni1FB6" unicode="&#x1fb6;" horiz-adv-x="588" 
d="M345 674c-56 0 -88 43 -122 43c-30 0 -39 -10 -59 -36l-21 12c21 34 45 54 80 54c40 0 78 -43 119 -43c20 0 35 11 57 43l21 -12c-22 -44 -49 -61 -75 -61zM254 531c99 0 151 -46 180 -215l47 204h35l-61 -250l32 -195c6 -34 23 -44 40 -49l-13 -31c-27 7 -53 22 -60 68
l-21 143c-30 -153 -92 -216 -186 -216c-110 0 -177 89 -177 273c0 157 72 268 184 268zM256 501c-83 0 -151 -85 -151 -238c0 -168 57 -242 145 -242c73 0 136 52 172 247c-37 183 -80 233 -166 233z" />
    <glyph glyph-name="uni1FB8" unicode="&#x1fb8;" horiz-adv-x="559" 
d="M278 769c-61 0 -106 39 -115 85l25 5c12 -34 43 -58 90 -58s79 24 91 58l25 -5c-9 -46 -54 -85 -116 -85zM432 197h-307l-66 -197h-35l234 682h43l234 -682h-37zM421 229l-142 425l-143 -425h285z" />
    <glyph glyph-name="uni1FB9" unicode="&#x1fb9;" horiz-adv-x="559" 
d="M387 808h-218v32h218v-32zM432 197h-307l-66 -197h-35l234 682h43l234 -682h-37zM421 229l-142 425l-143 -425h285z" />
    <glyph glyph-name="uni1FBA" unicode="&#x1fba;" horiz-adv-x="559" 
d="M361 761l-186 76l17 35l179 -89zM432 197h-307l-66 -197h-35l234 682h43l234 -682h-37zM421 229l-142 425l-143 -425h285z" />
    <glyph glyph-name="uni1FBB" unicode="&#x1fbb;" horiz-adv-x="559" 
d="M196 761l-10 22l178 89l18 -35zM432 197h-307l-66 -197h-35l234 682h43l234 -682h-37zM421 229l-142 425l-143 -425h285z" />
    <glyph glyph-name="uni1FC0" unicode="&#x1fc0;" horiz-adv-x="337" 
d="M232 674c-56 0 -88 43 -122 43c-30 0 -39 -10 -59 -36l-21 12c21 34 45 54 80 54c40 0 78 -43 119 -43c20 0 35 11 57 43l21 -12c-22 -44 -49 -61 -75 -61z" />
    <glyph glyph-name="uni1FC6" unicode="&#x1fc6;" horiz-adv-x="585" 
d="M220 717c-30 0 -39 -10 -59 -36l-21 12c21 34 45 54 80 54c40 0 78 -43 119 -43c20 0 35 11 57 43l21 -12c-22 -44 -49 -61 -75 -61c-56 0 -88 43 -122 43zM335 531c94 0 141 -59 141 -160v-571l-34 6v560c0 92 -37 135 -109 135c-81 0 -135 -49 -183 -119v-382h-34v354
c0 78 -10 127 -22 167l31 5c12 -30 19 -70 22 -107c45 66 106 112 188 112z" />
    <glyph glyph-name="uni1FC8" unicode="&#x1fc8;" horiz-adv-x="496" 
d="M380 783l-10 -22l-186 76l17 35zM444 650h-290v-276h251v-31h-251v-311h301v-32h-336v682h330z" />
    <glyph glyph-name="uni1FC9" unicode="&#x1fc9;" horiz-adv-x="496" 
d="M391 837l-186 -76l-10 22l178 89zM444 650h-290v-276h251v-31h-251v-311h301v-32h-336v682h330z" />
    <glyph glyph-name="uni1FCA" unicode="&#x1fca;" horiz-adv-x="663" 
d="M422 783l-10 -22l-186 76l17 35zM509 344h-355v-344h-35v682h35v-306h355v306h35v-682h-35v344z" />
    <glyph glyph-name="uni1FCB" unicode="&#x1fcb;" horiz-adv-x="663" 
d="M433 837l-186 -76l-10 22l178 89zM509 344h-355v-344h-35v682h35v-306h355v306h35v-682h-35v344z" />
    <glyph glyph-name="uni1FD0" unicode="&#x1fd0;" horiz-adv-x="254" 
d="M125 660c-61 0 -106 39 -115 94l25 6c12 -44 43 -69 90 -69s79 25 91 69l25 -6c-9 -55 -54 -94 -116 -94zM143 112c0 -56 14 -76 48 -89l-11 -28c-53 18 -71 48 -71 116v409h34v-408z" />
    <glyph glyph-name="uni1FD1" unicode="&#x1fd1;" horiz-adv-x="254" 
d="M17 682v32h218v-32h-218zM143 112c0 -56 14 -76 48 -89l-11 -28c-53 18 -71 48 -71 116v409h34v-408z" />
    <glyph glyph-name="uni1FD2" unicode="&#x1fd2;" horiz-adv-x="254" 
d="M228 776l-12 -23l-184 85l16 34zM38 704c17 0 28 -12 28 -27s-11 -27 -28 -27s-28 12 -28 27s11 27 28 27zM213 704c16 0 27 -12 27 -27s-11 -27 -27 -27c-17 0 -28 12 -28 27s11 27 28 27zM143 112c0 -56 14 -76 48 -89l-11 -28c-53 18 -71 48 -71 116v409h34v-408z" />
    <glyph glyph-name="uni1FD3" unicode="&#x1fd3;" horiz-adv-x="254" 
d="M219 838l-184 -85l-13 23l181 96zM38 704c17 0 28 -12 28 -27s-11 -27 -28 -27s-28 12 -28 27s11 27 28 27zM213 704c16 0 27 -12 27 -27s-11 -27 -27 -27c-17 0 -28 12 -28 27s11 27 28 27zM143 112c0 -56 14 -76 48 -89l-11 -28c-53 18 -71 48 -71 116v409h34v-408z
" />
    <glyph glyph-name="uni1FD6" unicode="&#x1fd6;" horiz-adv-x="254" 
d="M189 674c-56 0 -88 43 -122 43c-30 0 -39 -10 -59 -36l-21 12c21 34 45 54 80 54c40 0 78 -43 119 -43c20 0 35 11 57 43l21 -12c-22 -44 -49 -61 -75 -61zM143 112c0 -56 14 -76 48 -89l-11 -28c-53 18 -71 48 -71 116v409h34v-408z" />
    <glyph glyph-name="uni1FD7" unicode="&#x1fd7;" horiz-adv-x="254" 
d="M189 787c-56 0 -88 43 -122 43c-30 0 -39 -10 -59 -36l-21 12c21 34 45 54 80 54c40 0 78 -43 119 -43c20 0 35 11 57 43l21 -12c-22 -44 -49 -61 -75 -61zM37 723c17 0 28 -12 28 -27s-11 -27 -28 -27c-16 0 -27 12 -27 27s11 27 27 27zM212 723c17 0 28 -12 28 -27
s-11 -27 -28 -27s-28 12 -28 27s11 27 28 27zM143 112c0 -56 14 -76 48 -89l-11 -28c-53 18 -71 48 -71 116v409h34v-408z" />
    <glyph glyph-name="uni1FD8" unicode="&#x1fd8;" horiz-adv-x="273" 
d="M135 769c-61 0 -106 39 -115 85l25 5c12 -34 43 -58 90 -58s79 24 91 58l25 -5c-9 -46 -54 -85 -116 -85zM154 0h-35v682h35v-682z" />
    <glyph glyph-name="uni1FD9" unicode="&#x1fd9;" horiz-adv-x="273" 
d="M27 808v32h218v-32h-218zM154 0h-35v682h35v-682z" />
    <glyph glyph-name="uni1FDA" unicode="&#x1fda;" horiz-adv-x="273" 
d="M228 783l-10 -22l-186 76l17 35zM154 0h-35v682h35v-682z" />
    <glyph glyph-name="uni1FDB" unicode="&#x1fdb;" horiz-adv-x="273" 
d="M239 837l-186 -76l-10 22l178 89zM154 0h-35v682h35v-682z" />
    <glyph glyph-name="uni1FE0" unicode="&#x1fe0;" horiz-adv-x="559" 
d="M276 660c-61 0 -106 39 -115 94l25 6c12 -44 43 -69 90 -69s79 25 91 69l25 -6c-9 -55 -54 -94 -116 -94zM444 520c13 -76 26 -163 26 -256c0 -191 -91 -274 -200 -274c-91 0 -161 55 -161 166v364h34v-362c0 -97 56 -137 128 -137c81 0 164 57 164 243
c0 91 -12 179 -26 256h35z" />
    <glyph glyph-name="uni1FE1" unicode="&#x1fe1;" horiz-adv-x="559" 
d="M168 682v32h218v-32h-218zM444 520c13 -76 26 -163 26 -256c0 -191 -91 -274 -200 -274c-91 0 -161 55 -161 166v364h34v-362c0 -97 56 -137 128 -137c81 0 164 57 164 243c0 91 -12 179 -26 256h35z" />
    <glyph glyph-name="uni1FE2" unicode="&#x1fe2;" horiz-adv-x="559" 
d="M379 776l-12 -23l-184 85l16 34zM189 704c17 0 28 -12 28 -27s-11 -27 -28 -27s-28 12 -28 27s11 27 28 27zM364 704c16 0 27 -12 27 -27s-11 -27 -27 -27c-17 0 -28 12 -28 27s11 27 28 27zM444 520c13 -76 26 -163 26 -256c0 -191 -91 -274 -200 -274
c-91 0 -161 55 -161 166v364h34v-362c0 -97 56 -137 128 -137c81 0 164 57 164 243c0 91 -12 179 -26 256h35z" />
    <glyph glyph-name="uni1FE3" unicode="&#x1fe3;" horiz-adv-x="559" 
d="M370 838l-184 -85l-13 23l181 96zM189 704c17 0 28 -12 28 -27s-11 -27 -28 -27s-28 12 -28 27s11 27 28 27zM364 704c16 0 27 -12 27 -27s-11 -27 -27 -27c-17 0 -28 12 -28 27s11 27 28 27zM444 520c13 -76 26 -163 26 -256c0 -191 -91 -274 -200 -274
c-91 0 -161 55 -161 166v364h34v-362c0 -97 56 -137 128 -137c81 0 164 57 164 243c0 91 -12 179 -26 256h35z" />
    <glyph glyph-name="uni1FE6" unicode="&#x1fe6;" horiz-adv-x="559" 
d="M340 674c-56 0 -88 43 -122 43c-30 0 -39 -10 -59 -36l-21 12c21 34 45 54 80 54c40 0 78 -43 119 -43c20 0 35 11 57 43l21 -12c-22 -44 -49 -61 -75 -61zM444 520c13 -76 26 -163 26 -256c0 -191 -91 -274 -200 -274c-91 0 -161 55 -161 166v364h34v-362
c0 -97 56 -137 128 -137c81 0 164 57 164 243c0 91 -12 179 -26 256h35z" />
    <glyph glyph-name="uni1FE7" unicode="&#x1fe7;" horiz-adv-x="559" 
d="M340 787c-56 0 -88 43 -122 43c-30 0 -39 -10 -59 -36l-21 12c21 34 45 54 80 54c40 0 78 -43 119 -43c20 0 35 11 57 43l21 -12c-22 -44 -49 -61 -75 -61zM189 723c17 0 28 -12 28 -27s-11 -27 -28 -27c-16 0 -27 12 -27 27s11 27 27 27zM364 723c17 0 28 -12 28 -27
s-11 -27 -28 -27s-28 12 -28 27s11 27 28 27zM444 520c13 -76 26 -163 26 -256c0 -191 -91 -274 -200 -274c-91 0 -161 55 -161 166v364h34v-362c0 -97 56 -137 128 -137c81 0 164 57 164 243c0 91 -12 179 -26 256h35z" />
    <glyph glyph-name="uni1FE8" unicode="&#x1fe8;" horiz-adv-x="503" 
d="M248 769c-61 0 -106 39 -115 85l25 5c12 -34 43 -58 90 -58s79 24 91 58l25 -5c-9 -46 -54 -85 -116 -85zM271 271v-271h-36v270l-216 412h40l195 -382l191 382h39z" />
    <glyph glyph-name="uni1FE9" unicode="&#x1fe9;" horiz-adv-x="503" 
d="M139 808v32h218v-32h-218zM271 271v-271h-36v270l-216 412h40l195 -382l191 382h39z" />
    <glyph glyph-name="uni1FEA" unicode="&#x1fea;" horiz-adv-x="503" 
d="M340 783l-10 -22l-186 76l17 35zM271 271v-271h-36v270l-216 412h40l195 -382l191 382h39z" />
    <glyph glyph-name="uni1FEB" unicode="&#x1feb;" horiz-adv-x="503" 
d="M351 837l-186 -76l-10 22l178 89zM271 271v-271h-36v270l-216 412h40l195 -382l191 382h39z" />
    <glyph glyph-name="uni1FF6" unicode="&#x1ff6;" horiz-adv-x="771" 
d="M451 674c-56 0 -88 43 -122 43c-30 0 -39 -10 -59 -36l-21 12c21 34 45 54 80 54c40 0 78 -43 119 -43c20 0 35 11 57 43l21 -12c-22 -44 -49 -61 -75 -61zM633 520c30 -73 54 -177 54 -285c0 -195 -86 -245 -168 -245c-70 0 -125 37 -134 126
c-13 -89 -66 -126 -134 -126c-99 0 -167 73 -167 247c0 125 30 216 56 283h35c-34 -86 -56 -179 -56 -284c0 -167 64 -215 132 -215c63 0 116 38 116 157v173l35 6v-180c0 -120 55 -156 113 -156c67 0 137 39 137 212c0 124 -28 224 -54 287h35z" />
    <glyph glyph-name="uni1FF8" unicode="&#x1ff8;" horiz-adv-x="690" 
d="M423 783l-10 -22l-186 76l17 35zM345 693c162 0 271 -122 271 -353c0 -222 -104 -350 -271 -350c-161 0 -271 124 -271 349c0 226 111 354 271 354zM345 660c-139 0 -235 -107 -235 -321c0 -209 97 -317 235 -317c146 0 235 108 235 318c0 215 -94 320 -235 320z" />
    <glyph glyph-name="uni1FF9" unicode="&#x1ff9;" horiz-adv-x="690" 
d="M435 837l-186 -76l-10 22l178 89zM345 693c162 0 271 -122 271 -353c0 -222 -104 -350 -271 -350c-161 0 -271 124 -271 349c0 226 111 354 271 354zM345 660c-139 0 -235 -107 -235 -321c0 -209 97 -317 235 -317c146 0 235 108 235 318c0 215 -94 320 -235 320z" />
    <glyph glyph-name="uni1FFA" unicode="&#x1ffa;" horiz-adv-x="690" 
d="M437 783l-10 -22l-186 76l17 35zM345 693c162 0 271 -122 271 -352c0 -173 -57 -262 -151 -308h129v-33h-187v32c112 43 173 137 173 309c0 214 -94 319 -235 319c-139 0 -235 -107 -235 -320c0 -168 61 -260 173 -308v-32h-187v33h130c-102 53 -152 142 -152 307
c0 225 111 353 271 353z" />
    <glyph glyph-name="uni1FFB" unicode="&#x1ffb;" horiz-adv-x="690" 
d="M448 837l-186 -76l-10 22l178 89zM345 693c162 0 271 -122 271 -352c0 -173 -57 -262 -151 -308h129v-33h-187v32c112 43 173 137 173 309c0 214 -94 319 -235 319c-139 0 -235 -107 -235 -320c0 -168 61 -260 173 -308v-32h-187v33h130c-102 53 -152 142 -152 307
c0 225 111 353 271 353z" />
    <glyph glyph-name="uni2007" unicode="&#x2007;" 
 />
    <glyph glyph-name="uni2008" unicode="&#x2008;" horiz-adv-x="820" 
 />
    <glyph glyph-name="zerowidthspace" unicode="&#x200b;" horiz-adv-x="0" 
 />
    <glyph glyph-name="uni200C" unicode="&#x200c;" horiz-adv-x="0" 
d="M8 -150h-16v900h16v-900z" />
    <glyph glyph-name="uni200D" unicode="&#x200d;" horiz-adv-x="0" 
d="M65 804l-54 -54l57 -57l-11 -11l-49 49v-881h-16v881l-49 -49l-11 11l57 57l-54 54l11 11l54 -54l54 54z" />
    <glyph glyph-name="uni200E" unicode="&#x200e;" horiz-adv-x="0" 
d="M128 750l-55 -72l-13 9l43 55h-95v-892h-16v908h111l-43 55l13 9z" />
    <glyph glyph-name="uni200F" unicode="&#x200f;" horiz-adv-x="0" 
d="M-60 813l-43 -55h111v-908h-16v892h-95l43 -55l-13 -9l-55 72l55 72z" />
    <glyph glyph-name="figuredash" unicode="&#x2012;" 
d="M41 349h478v-31h-478v31z" />
    <glyph glyph-name="endash" unicode="&#x2013;" horiz-adv-x="520" 
d="M45 329h430v-32h-430v32z" />
    <glyph glyph-name="emdash" unicode="&#x2014;" horiz-adv-x="778" 
d="M45 329h688v-31h-688v31z" />
    <glyph glyph-name="uni2015" unicode="&#x2015;" horiz-adv-x="520" 
d="M45 329h430v-32h-430v32z" />
    <glyph glyph-name="quoteleft" unicode="&#x2018;" horiz-adv-x="212" 
d="M105 554c-22 0 -32 14 -32 31c0 8 2 17 11 37l49 111h25l-36 -122c9 -5 15 -16 15 -26c0 -17 -11 -31 -32 -31z" />
    <glyph glyph-name="quoteright" unicode="&#x2019;" horiz-adv-x="212" 
d="M107 733c22 0 32 -14 32 -31c0 -8 -2 -17 -11 -37l-50 -111h-24l36 122c-9 5 -15 16 -15 26c0 17 11 31 32 31z" />
    <glyph glyph-name="quotesinglbase" unicode="&#x201a;" horiz-adv-x="212" 
d="M107 53c22 0 32 -14 32 -31c0 -9 -2 -17 -11 -38l-50 -111h-24l36 122c-9 5 -15 16 -15 27c0 17 11 31 32 31z" />
    <glyph glyph-name="quotedblleft" unicode="&#x201c;" horiz-adv-x="346" 
d="M86 553c-22 0 -32 14 -32 31c0 9 2 17 11 38l49 111h25l-36 -122c9 -5 15 -16 15 -27c0 -17 -11 -31 -32 -31zM220 553c-22 0 -32 14 -32 31c0 9 2 17 11 38l50 111h24l-36 -122c9 -5 15 -16 15 -27c0 -17 -11 -31 -32 -31z" />
    <glyph glyph-name="quotedblright" unicode="&#x201d;" horiz-adv-x="346" 
d="M107 734c22 0 32 -14 32 -31c0 -9 -2 -17 -11 -38l-50 -111h-24l36 122c-9 5 -15 16 -15 27c0 17 11 31 32 31zM241 734c22 0 32 -14 32 -31c0 -9 -2 -17 -11 -38l-49 -111h-25l36 122c-9 5 -15 16 -15 27c0 17 11 31 32 31z" />
    <glyph glyph-name="quotedblbase" unicode="&#x201e;" horiz-adv-x="346" 
d="M107 53c22 0 32 -14 32 -31c0 -9 -2 -17 -11 -38l-50 -111h-24l36 122c-9 5 -15 16 -15 27c0 17 11 31 32 31zM241 53c22 0 32 -14 32 -31c0 -9 -2 -17 -11 -38l-49 -111h-25l36 122c-9 5 -15 16 -15 27c0 17 11 31 32 31z" />
    <glyph glyph-name="dagger" unicode="&#x2020;" horiz-adv-x="503" 
d="M269 504h177v-31h-177v-473h-35v473h-177v31h177v158h35v-158z" />
    <glyph glyph-name="daggerdbl" unicode="&#x2021;" horiz-adv-x="508" 
d="M451 184h-180v-184h-35v184h-179v30h179v259h-177v31h177v158h35v-158h177v-31h-177v-259h180v-30z" />
    <glyph glyph-name="bullet" unicode="&#x2022;" horiz-adv-x="260" 
d="M130 396c30 0 48 -21 48 -48c0 -25 -18 -46 -48 -46c-28 0 -47 21 -47 47s19 47 47 47z" />
    <glyph glyph-name="ellipsis" unicode="&#x2026;" horiz-adv-x="553" 
d="M92 54c20 0 32 -14 32 -32s-12 -32 -32 -32c-19 0 -33 14 -33 32s14 32 33 32zM276 54c21 0 33 -14 33 -32s-12 -32 -33 -32c-19 0 -32 14 -32 32s13 32 32 32zM461 54c20 0 32 -14 32 -32s-12 -32 -32 -32s-33 14 -33 32s13 32 33 32z" />
    <glyph glyph-name="perthousand" unicode="&#x2030;" horiz-adv-x="1111" 
d="M636 680l-464 -699l-28 18l464 699zM200 674c83 0 140 -61 140 -157s-53 -159 -140 -159c-84 0 -141 61 -141 157s53 159 141 159zM200 646c-76 0 -107 -60 -107 -131c0 -69 31 -129 107 -129c75 0 106 60 106 131c0 69 -31 129 -106 129zM570 306c84 0 141 -61 141 -156
c0 -97 -53 -160 -141 -160c-83 0 -140 61 -140 157s53 159 140 159zM912 306c83 0 140 -61 140 -156c0 -97 -53 -160 -140 -160c-84 0 -141 61 -141 157s53 159 141 159zM570 278c-75 0 -106 -60 -106 -131c0 -69 31 -129 106 -129c76 0 107 60 107 132
c0 68 -31 128 -107 128zM912 278c-75 0 -106 -60 -106 -131c0 -69 31 -129 106 -129s106 60 106 132c0 68 -31 128 -106 128z" />
    <glyph glyph-name="guilsinglleft" unicode="&#x2039;" horiz-adv-x="344" 
d="M261 494l-139 -206l139 -205l-23 -15l-155 209v22l155 210z" />
    <glyph glyph-name="guilsinglright" unicode="&#x203a;" horiz-adv-x="344" 
d="M261 299v-22l-156 -209l-22 15l139 205l-139 206l22 15z" />
    <glyph glyph-name="fraction" unicode="&#x2044;" horiz-adv-x="102" 
d="M269 732l-409 -798l-27 13l409 798z" />
    <glyph glyph-name="zerosuperior" unicode="&#x2070;" horiz-adv-x="400" 
d="M200 742c82 0 132 -70 132 -215c0 -141 -51 -211 -132 -211c-82 0 -132 72 -132 213c0 143 50 213 132 213zM200 713c-60 0 -99 -56 -99 -184c0 -126 38 -184 99 -184s98 56 98 182c0 129 -36 186 -98 186z" />
    <glyph glyph-name="foursuperior" unicode="&#x2074;" horiz-adv-x="400" 
d="M339 431h-57v-108h-32v108h-190v25l131 286l27 -11l-124 -271h156l4 122h28v-122h57v-29z" />
    <glyph glyph-name="fivesuperior" unicode="&#x2075;" horiz-adv-x="400" 
d="M310 705h-176v-139c15 9 39 20 71 20c76 0 124 -50 124 -130c0 -81 -53 -140 -135 -140c-55 0 -91 18 -124 49l22 20c29 -27 55 -40 102 -40c60 0 101 42 101 111c0 70 -40 101 -92 101c-32 0 -50 -6 -77 -21h-24v198h214z" />
    <glyph glyph-name="sixsuperior" unicode="&#x2076;" horiz-adv-x="400" 
d="M216 591c59 0 113 -40 113 -130c0 -91 -55 -145 -124 -145c-101 0 -134 87 -134 188c0 157 62 238 153 238c33 0 56 -9 79 -24l-15 -24c-23 14 -40 19 -65 19c-74 0 -115 -71 -119 -185c26 38 62 63 112 63zM205 345c60 0 90 54 90 115c0 71 -37 102 -81 102
c-45 0 -84 -26 -110 -70c3 -90 29 -147 101 -147z" />
    <glyph glyph-name="sevensuperior" unicode="&#x2077;" horiz-adv-x="400" 
d="M319 708l-172 -389l-31 10l168 376h-204v29h239v-26z" />
    <glyph glyph-name="eightsuperior" unicode="&#x2078;" horiz-adv-x="400" 
d="M238 542c67 -26 99 -53 99 -113c0 -71 -59 -113 -140 -113c-83 0 -135 46 -135 111c0 54 34 97 95 118c-48 21 -75 44 -75 95c0 66 55 102 118 102c60 0 118 -34 118 -103c0 -43 -26 -71 -80 -97zM114 642c0 -39 12 -60 74 -81l23 -8c52 24 75 49 75 86
c0 51 -37 76 -86 76c-48 0 -86 -25 -86 -73zM198 344c59 0 106 24 106 85c0 51 -26 70 -86 93l-27 11c-72 -22 -96 -54 -96 -106c0 -58 45 -83 103 -83z" />
    <glyph glyph-name="ninesuperior" unicode="&#x2079;" horiz-adv-x="400" 
d="M201 742c88 0 128 -63 128 -168c0 -160 -79 -221 -213 -264l-10 26c113 34 181 88 191 199c-29 -39 -64 -58 -108 -58c-68 0 -118 49 -118 129c0 84 53 136 130 136zM193 505c43 0 73 23 104 64c-2 94 -27 144 -95 144c-61 0 -98 -36 -98 -108c0 -65 33 -100 89 -100z
" />
    <glyph glyph-name="plussuperior" unicode="&#x207a;" horiz-adv-x="400" 
d="M215 531h99v-27h-99v-95h-30v95h-99v27h99v95h30v-95z" />
    <glyph glyph-name="uni207B" unicode="&#x207b;" horiz-adv-x="400" 
d="M86 531h228v-27h-228v27z" />
    <glyph glyph-name="equalsuperior" unicode="&#x207c;" horiz-adv-x="400" 
d="M86 581h228v-27h-228v27zM86 486h228v-27h-228v27z" />
    <glyph glyph-name="parenleftsuperior" unicode="&#x207d;" horiz-adv-x="402" 
d="M268 765c-53 -82 -99 -152 -99 -294s46 -212 99 -294l-23 -15c-58 84 -111 158 -111 309s53 225 111 309z" />
    <glyph glyph-name="parenrightsuperior" unicode="&#x207e;" horiz-adv-x="402" 
d="M157 780c58 -84 111 -158 111 -309s-53 -225 -111 -309l-23 15c53 82 98 152 98 294s-45 212 -98 294z" />
    <glyph glyph-name="zeroinferior" unicode="&#x2080;" horiz-adv-x="400" 
d="M200 225c82 0 132 -70 132 -215c0 -141 -51 -211 -132 -211c-82 0 -132 72 -132 213c0 143 50 213 132 213zM200 196c-60 0 -99 -56 -99 -184c0 -126 38 -184 99 -184s98 56 98 182c0 129 -36 186 -98 186z" />
    <glyph glyph-name="oneinferior" unicode="&#x2081;" horiz-adv-x="400" 
d="M247 -194h-32v374l-107 -62l-16 24l129 75h26v-411z" />
    <glyph glyph-name="twoinferior" unicode="&#x2082;" horiz-adv-x="400" 
d="M198 223c72 0 115 -46 115 -107c0 -85 -45 -132 -192 -280h205l-6 -30h-239v29c163 165 198 207 198 278c0 52 -32 80 -83 80c-43 0 -74 -18 -98 -46l-24 18c36 41 74 58 124 58z" />
    <glyph glyph-name="threeinferior" unicode="&#x2083;" horiz-adv-x="400" 
d="M201 225c70 0 117 -42 117 -103c0 -55 -35 -89 -85 -97c52 -2 95 -38 95 -104c0 -72 -52 -122 -136 -122c-51 0 -89 19 -121 53l21 18c32 -32 64 -42 99 -42c69 0 104 38 104 93c0 64 -40 88 -99 88h-27l4 28h19c44 0 93 24 93 84c0 48 -35 75 -86 75
c-37 0 -64 -10 -99 -38l-18 21c34 29 67 46 119 46z" />
    <glyph glyph-name="fourinferior" unicode="&#x2084;" horiz-adv-x="400" 
d="M339 -86h-57v-108h-32v108h-190v25l131 286l27 -11l-124 -271h156l4 122h28v-122h57v-29z" />
    <glyph glyph-name="fiveinferior" unicode="&#x2085;" horiz-adv-x="400" 
d="M310 188h-176v-139c15 9 39 20 71 20c76 0 124 -50 124 -130c0 -81 -53 -140 -135 -140c-55 0 -91 18 -124 49l22 20c29 -27 55 -40 102 -40c60 0 101 42 101 111c0 70 -40 101 -92 101c-32 0 -50 -6 -77 -21h-24v198h214z" />
    <glyph glyph-name="sixinferior" unicode="&#x2086;" horiz-adv-x="400" 
d="M216 74c59 0 113 -40 113 -130c0 -91 -55 -145 -124 -145c-101 0 -134 87 -134 188c0 157 62 238 153 238c33 0 56 -9 79 -24l-15 -24c-23 14 -40 19 -65 19c-74 0 -115 -71 -119 -185c26 38 62 63 112 63zM205 -172c60 0 90 54 90 115c0 71 -37 102 -81 102
c-45 0 -84 -26 -110 -70c3 -90 29 -147 101 -147z" />
    <glyph glyph-name="seveninferior" unicode="&#x2087;" horiz-adv-x="400" 
d="M319 191l-172 -389l-31 10l168 376h-204v29h239v-26z" />
    <glyph glyph-name="eightinferior" unicode="&#x2088;" horiz-adv-x="400" 
d="M238 25c67 -26 99 -53 99 -113c0 -71 -59 -113 -140 -113c-83 0 -135 46 -135 111c0 54 34 97 95 118c-48 21 -75 44 -75 95c0 66 55 102 118 102c60 0 118 -34 118 -103c0 -43 -26 -71 -80 -97zM114 125c0 -39 12 -60 74 -81l23 -8c52 24 75 49 75 86
c0 51 -37 76 -86 76c-48 0 -86 -25 -86 -73zM198 -173c59 0 106 24 106 85c0 51 -26 70 -86 93l-27 11c-72 -22 -96 -54 -96 -106c0 -58 45 -83 103 -83z" />
    <glyph glyph-name="nineinferior" unicode="&#x2089;" horiz-adv-x="400" 
d="M201 225c88 0 128 -63 128 -168c0 -160 -79 -221 -213 -264l-10 26c113 34 181 88 191 199c-29 -39 -64 -58 -108 -58c-68 0 -118 49 -118 129c0 84 53 136 130 136zM193 -12c43 0 73 23 104 64c-2 94 -27 144 -95 144c-61 0 -98 -36 -98 -108c0 -65 33 -100 89 -100z
" />
    <glyph glyph-name="uni208A" unicode="&#x208a;" horiz-adv-x="400" 
d="M215 9h99v-27h-99v-95h-30v95h-99v27h99v95h30v-95z" />
    <glyph glyph-name="uni208B" unicode="&#x208b;" horiz-adv-x="400" 
d="M86 9h228v-27h-228v27z" />
    <glyph glyph-name="uni208C" unicode="&#x208c;" horiz-adv-x="400" 
d="M86 59h228v-27h-228v27zM86 -36h228v-27h-228v27z" />
    <glyph glyph-name="uni208D" unicode="&#x208d;" horiz-adv-x="402" 
d="M268 281c-53 -82 -99 -152 -99 -294s46 -212 99 -294l-23 -15c-58 84 -111 158 -111 309s53 225 111 309z" />
    <glyph glyph-name="uni208E" unicode="&#x208e;" horiz-adv-x="402" 
d="M157 296c58 -84 111 -158 111 -309s-53 -225 -111 -309l-23 15c53 82 98 152 98 294s-45 212 -98 294z" />
    <glyph glyph-name="Euro" unicode="&#x20ac;" horiz-adv-x="569" 
d="M364 642c-100 0 -178 -74 -204 -220h283l-8 -30h-278v-112h257l-6 -30h-250c19 -159 98 -228 206 -228c60 0 95 18 138 44v-36c-40 -25 -85 -40 -142 -40c-129 0 -217 87 -238 260h-78l7 30h70v112h-77l7 30h73c29 161 120 252 240 252c62 0 110 -18 161 -53l-17 -27
c-52 35 -89 48 -144 48z" />
    <glyph glyph-name="uni2116" unicode="&#x2116;" horiz-adv-x="1094" 
d="M834 693c107 0 181 -81 181 -214c0 -134 -74 -214 -181 -214s-181 81 -181 214c0 134 74 214 181 214zM547 0h-44l-355 643c3 -40 5 -93 5 -213v-430h-34v682h44l354 -643c-2 39 -4 107 -4 198v445h34v-682zM834 663c-88 0 -148 -58 -148 -184c0 -125 64 -184 148 -184
c87 0 147 58 147 184c0 125 -64 184 -147 184zM663 32h341v-32h-341v32z" />
    <glyph glyph-name="trademark" unicode="&#x2122;" horiz-adv-x="853" 
d="M335 654h-128v-353h-31v353h-132v28h296zM755 301h-31l-11 186c-2 43 -5 97 -4 156h-1l-122 -297h-31l-123 304h-1c0 -56 -1 -97 -5 -163l-10 -186h-30l20 381h41l123 -307l127 307h36z" />
    <glyph glyph-name="Ohm" unicode="&#x2126;" horiz-adv-x="690" 
d="M345 693c162 0 271 -122 271 -352c0 -173 -57 -262 -151 -308h129v-33h-187v32c112 43 173 137 173 309c0 214 -94 319 -235 319c-139 0 -235 -107 -235 -320c0 -168 61 -260 173 -308v-32h-187v33h130c-102 53 -152 142 -152 307c0 225 111 353 271 353z" />
    <glyph glyph-name="estimated" unicode="&#x212e;" horiz-adv-x="945" 
d="M218 121c42 -63 161 -97 255 -97s204 33 260 98h58c-73 -85 -180 -137 -319 -137c-229 0 -402 152 -402 362s181 368 402 368c214 0 403 -153 403 -376h-657v-218zM727 574c-56 61 -137 102 -254 102s-204 -39 -255 -101v-196h509v195z" />
    <glyph glyph-name="uni2153" unicode="&#x2153;" horiz-adv-x="902" 
d="M669 732l-409 -798l-27 13l409 798zM247 271h-32v374l-107 -62l-16 24l129 75h26v-411zM703 419c70 0 117 -42 117 -103c0 -55 -35 -89 -85 -97c52 -2 95 -38 95 -104c0 -72 -52 -122 -136 -122c-51 0 -89 19 -121 53l21 18c32 -32 64 -42 99 -42c69 0 104 38 104 93
c0 64 -40 88 -99 88h-27l4 28h19c44 0 93 24 93 84c0 48 -35 75 -86 75c-37 0 -64 -10 -99 -38l-18 21c34 29 67 46 119 46z" />
    <glyph glyph-name="uni2154" unicode="&#x2154;" horiz-adv-x="902" 
d="M669 732l-409 -798l-27 13l409 798zM198 688c72 0 115 -46 115 -107c0 -85 -45 -132 -192 -280h205l-6 -30h-239v29c163 165 198 207 198 278c0 52 -32 80 -83 80c-43 0 -74 -18 -98 -46l-24 18c36 41 74 58 124 58zM703 419c70 0 117 -42 117 -103
c0 -55 -35 -89 -85 -97c52 -2 95 -38 95 -104c0 -72 -52 -122 -136 -122c-51 0 -89 19 -121 53l21 18c32 -32 64 -42 99 -42c69 0 104 38 104 93c0 64 -40 88 -99 88h-27l4 28h19c44 0 93 24 93 84c0 48 -35 75 -86 75c-37 0 -64 -10 -99 -38l-18 21c34 29 67 46 119 46z
" />
    <glyph glyph-name="uni2155" unicode="&#x2155;" horiz-adv-x="902" 
d="M669 732l-409 -798l-27 13l409 798zM247 271h-32v374l-107 -62l-16 24l129 75h26v-411zM812 382h-176v-139c15 9 39 20 71 20c76 0 124 -50 124 -130c0 -81 -53 -140 -135 -140c-55 0 -91 18 -124 49l22 20c29 -27 55 -40 102 -40c60 0 101 42 101 111
c0 70 -40 101 -92 101c-32 0 -50 -6 -77 -21h-24v198h214z" />
    <glyph glyph-name="uni2156" unicode="&#x2156;" horiz-adv-x="902" 
d="M669 732l-409 -798l-27 13l409 798zM198 688c72 0 115 -46 115 -107c0 -85 -45 -132 -192 -280h205l-6 -30h-239v29c163 165 198 207 198 278c0 52 -32 80 -83 80c-43 0 -74 -18 -98 -46l-24 18c36 41 74 58 124 58zM812 382h-176v-139c15 9 39 20 71 20
c76 0 124 -50 124 -130c0 -81 -53 -140 -135 -140c-55 0 -91 18 -124 49l22 20c29 -27 55 -40 102 -40c60 0 101 42 101 111c0 70 -40 101 -92 101c-32 0 -50 -6 -77 -21h-24v198h214z" />
    <glyph glyph-name="uni2157" unicode="&#x2157;" horiz-adv-x="902" 
d="M669 732l-409 -798l-27 13l409 798zM201 690c70 0 117 -42 117 -103c0 -55 -35 -89 -85 -97c52 -2 95 -38 95 -104c0 -72 -52 -122 -136 -122c-51 0 -89 19 -121 53l21 18c32 -32 64 -42 99 -42c69 0 104 38 104 93c0 64 -40 88 -99 88h-27l4 28h19c44 0 93 24 93 84
c0 48 -35 75 -86 75c-37 0 -64 -10 -99 -38l-18 21c34 29 67 46 119 46zM812 382h-176v-139c15 9 39 20 71 20c76 0 124 -50 124 -130c0 -81 -53 -140 -135 -140c-55 0 -91 18 -124 49l22 20c29 -27 55 -40 102 -40c60 0 101 42 101 111c0 70 -40 101 -92 101
c-32 0 -50 -6 -77 -21h-24v198h214z" />
    <glyph glyph-name="uni2158" unicode="&#x2158;" horiz-adv-x="902" 
d="M669 732l-409 -798l-27 13l409 798zM250 379h-190v25l131 286l27 -11l-124 -271h156l4 122h28v-122h57v-29h-57v-108h-32v108zM707 263c76 0 124 -50 124 -130c0 -81 -53 -140 -135 -140c-55 0 -91 18 -124 49l22 20c29 -27 55 -40 102 -40c60 0 101 42 101 111
c0 70 -40 101 -92 101c-32 0 -50 -6 -77 -21h-24v198h214l-6 -29h-176v-139c15 9 39 20 71 20z" />
    <glyph glyph-name="uni2159" unicode="&#x2159;" horiz-adv-x="902" 
d="M669 732l-409 -798l-27 13l409 798zM215 271v374l-107 -62l-16 24l129 75h26v-411h-32zM718 268c59 0 113 -40 113 -130c0 -91 -55 -145 -124 -145c-101 0 -134 87 -134 188c0 157 62 238 153 238c33 0 56 -9 79 -24l-15 -24c-23 14 -40 19 -65 19
c-74 0 -115 -71 -119 -185c26 38 62 63 112 63zM707 22c60 0 90 54 90 115c0 71 -37 102 -81 102c-45 0 -84 -26 -110 -70c3 -90 29 -147 101 -147z" />
    <glyph glyph-name="uni215A" unicode="&#x215a;" horiz-adv-x="902" 
d="M669 732l-409 -798l-27 13l409 798zM329 404c0 -81 -53 -140 -135 -140c-55 0 -91 18 -124 49l22 20c29 -27 55 -40 102 -40c60 0 101 42 101 111c0 70 -40 101 -92 101c-32 0 -50 -6 -77 -21h-24v198h214l-6 -29h-176v-139c15 9 39 20 71 20c76 0 124 -50 124 -130z
M718 268c59 0 113 -40 113 -130c0 -91 -55 -145 -124 -145c-101 0 -134 87 -134 188c0 157 62 238 153 238c33 0 56 -9 79 -24l-15 -24c-23 14 -40 19 -65 19c-74 0 -115 -71 -119 -185c26 38 62 63 112 63zM707 22c60 0 90 54 90 115c0 71 -37 102 -81 102
c-45 0 -84 -26 -110 -70c3 -90 29 -147 101 -147z" />
    <glyph glyph-name="oneeighth" unicode="&#x215b;" horiz-adv-x="902" 
d="M669 732l-409 -798l-27 13l409 798zM215 271v374l-107 -62l-16 24l129 75h26v-411h-32zM740 219c67 -26 99 -53 99 -113c0 -71 -59 -113 -140 -113c-83 0 -135 46 -135 111c0 54 34 97 95 118c-48 21 -75 44 -75 95c0 66 55 102 118 102c60 0 118 -34 118 -103
c0 -43 -26 -71 -80 -97zM616 319c0 -39 12 -60 74 -81l23 -8c52 24 75 49 75 86c0 51 -37 76 -86 76c-48 0 -86 -25 -86 -73zM700 21c59 0 106 24 106 85c0 51 -26 70 -86 93l-27 11c-72 -22 -96 -54 -96 -106c0 -58 45 -83 103 -83z" />
    <glyph glyph-name="threeeighths" unicode="&#x215c;" horiz-adv-x="902" 
d="M669 732l-409 -798l-27 13l409 798zM328 386c0 -72 -52 -122 -136 -122c-51 0 -89 19 -121 53l21 18c32 -32 64 -42 99 -42c69 0 104 38 104 93c0 64 -40 88 -99 88h-27l4 28h19c44 0 93 24 93 84c0 48 -35 75 -86 75c-37 0 -64 -10 -99 -38l-18 21c34 29 67 46 119 46
c70 0 117 -42 117 -103c0 -55 -35 -89 -85 -97c52 -2 95 -38 95 -104zM740 219c67 -26 99 -53 99 -113c0 -71 -59 -113 -140 -113c-83 0 -135 46 -135 111c0 54 34 97 95 118c-48 21 -75 44 -75 95c0 66 55 102 118 102c60 0 118 -34 118 -103c0 -43 -26 -71 -80 -97z
M616 319c0 -39 12 -60 74 -81l23 -8c52 24 75 49 75 86c0 51 -37 76 -86 76c-48 0 -86 -25 -86 -73zM700 21c59 0 106 24 106 85c0 51 -26 70 -86 93l-27 11c-72 -22 -96 -54 -96 -106c0 -58 45 -83 103 -83z" />
    <glyph glyph-name="fiveeighths" unicode="&#x215d;" horiz-adv-x="902" 
d="M669 732l-409 -798l-27 13l409 798zM329 404c0 -81 -53 -140 -135 -140c-55 0 -91 18 -124 49l22 20c29 -27 55 -40 102 -40c60 0 101 42 101 111c0 70 -40 101 -92 101c-32 0 -50 -6 -77 -21h-24v198h214l-6 -29h-176v-139c15 9 39 20 71 20c76 0 124 -50 124 -130z
M740 219c67 -26 99 -53 99 -113c0 -71 -59 -113 -140 -113c-83 0 -135 46 -135 111c0 54 34 97 95 118c-48 21 -75 44 -75 95c0 66 55 102 118 102c60 0 118 -34 118 -103c0 -43 -26 -71 -80 -97zM616 319c0 -39 12 -60 74 -81l23 -8c52 24 75 49 75 86c0 51 -37 76 -86 76
c-48 0 -86 -25 -86 -73zM700 21c59 0 106 24 106 85c0 51 -26 70 -86 93l-27 11c-72 -22 -96 -54 -96 -106c0 -58 45 -83 103 -83z" />
    <glyph glyph-name="seveneighths" unicode="&#x215e;" horiz-adv-x="833" 
d="M600 732l-409 -798l-27 13l409 798zM319 656l-172 -389l-31 10l168 376h-204v29h239v-26zM671 219c67 -26 99 -53 99 -113c0 -71 -59 -113 -140 -113c-83 0 -136 46 -136 111c0 54 35 98 96 118c-48 22 -76 44 -76 95c0 66 56 102 119 102c60 0 117 -34 117 -103
c0 -43 -26 -71 -79 -97zM546 319c0 -39 13 -60 75 -81l22 -8c52 24 75 49 75 86c0 51 -37 76 -85 76c-49 0 -87 -25 -87 -73zM631 21c58 0 106 24 106 85c0 51 -27 70 -87 93l-27 11c-71 -22 -95 -54 -95 -106c0 -58 45 -83 103 -83z" />
    <glyph glyph-name="onefraction" unicode="&#x215f;" horiz-adv-x="502" 
d="M669 732l-409 -798l-27 13l409 798zM247 271h-32v374l-107 -62l-16 24l129 75h26v-411z" />
    <glyph glyph-name="arrowleft" unicode="&#x2190;" horiz-adv-x="900" 
d="M424 578l-142 -160c-28 -32 -56 -57 -77 -73h539v-32h-539c20 -16 49 -41 77 -73l142 -160l-25 -23l-245 272l245 272z" />
    <glyph glyph-name="arrowup" unicode="&#x2191;" horiz-adv-x="900" 
d="M433 580c-15 -20 -42 -47 -73 -75l-175 -153l-24 24l289 256l289 -256l-24 -24l-175 153c-31 28 -58 55 -73 75v-580h-34v580z" />
    <glyph glyph-name="arrowright" unicode="&#x2192;" horiz-adv-x="900" 
d="M746 329l-245 -272l-25 23l142 160c28 32 57 57 77 73h-539v32h539c-21 16 -49 41 -77 73l-142 160l25 23z" />
    <glyph glyph-name="arrowdown" unicode="&#x2193;" horiz-adv-x="900" 
d="M467 34c15 20 42 47 73 75l175 153l24 -23l-289 -256l-289 256l24 23l175 -153c31 -28 58 -55 73 -75v580h34v-580z" />
    <glyph glyph-name="uni2194" unicode="&#x2194;" horiz-adv-x="1280" 
d="M1126 329l-245 -272l-25 23l142 160c28 32 57 57 77 73h-870c20 -16 49 -41 77 -73l142 -160l-25 -23l-245 272l245 272l25 -23l-142 -160c-28 -32 -56 -57 -77 -73h870c-21 16 -49 41 -77 73l-142 160l25 23z" />
    <glyph glyph-name="arrowupdn" unicode="&#x2195;" horiz-adv-x="900" 
d="M739 584l-24 -23l-175 153c-31 27 -58 55 -73 75v-897c15 20 42 48 73 75l175 153l24 -23l-289 -256l-289 256l24 23l175 -153c31 -27 58 -55 73 -75v897c-15 -20 -42 -48 -73 -75l-175 -153l-24 23l289 256z" />
    <glyph glyph-name="uni2196" unicode="&#x2196;" horiz-adv-x="900" 
d="M264 475c2 -30 2 -60 0 -99l-12 -241l-33 2l19 386l378 21l3 -33l-242 -13c-39 -3 -65 -2 -91 1l395 -399l-23 -24z" />
    <glyph glyph-name="uni2197" unicode="&#x2197;" horiz-adv-x="900" 
d="M219 136l395 399c-26 -3 -52 -4 -91 -1l-242 13l3 33l378 -21l19 -386l-33 -2l-12 241c-2 39 -2 69 0 99l-394 -399z" />
    <glyph glyph-name="uni2198" unicode="&#x2198;" horiz-adv-x="900" 
d="M636 132c-2 30 -2 60 0 99l12 241l33 -2l-19 -386l-378 -21l-3 33l242 13c39 3 65 2 91 -1l-395 399l23 24z" />
    <glyph glyph-name="uni2199" unicode="&#x2199;" horiz-adv-x="900" 
d="M681 507l-395 -399c26 3 52 4 91 1l242 -13l-3 -33l-378 21l-19 386l33 2l12 -241c2 -39 2 -69 0 -99l394 399z" />
    <glyph glyph-name="arrowleftwhite" unicode="&#x21e6;" horiz-adv-x="960" 
d="M920 239c0 -30 -20 -50 -50 -50h-532v-176l-298 300l298 300v-176h532c30 0 50 -20 50 -50v-148zM293 393v111l-189 -191l189 -191v111h583v160h-583z" />
    <glyph glyph-name="arrowupwhite" unicode="&#x21e7;" horiz-adv-x="720" 
d="M279 -12c-30 0 -50 20 -50 50v496h-169l300 298l300 -298h-169v-496c0 -30 -20 -50 -50 -50h-162zM444 579h107l-191 189l-191 -189h107v-547h168v547z" />
    <glyph glyph-name="arrowrightwhite" unicode="&#x21e8;" horiz-adv-x="960" 
d="M40 387c0 30 20 50 50 50h532v176l298 -300l-298 -300v176h-532c-30 0 -50 20 -50 50v148zM84 233h583v-111l189 191l-189 191v-111h-583v-160z" />
    <glyph glyph-name="arrowdownwhite" unicode="&#x21e9;" horiz-adv-x="720" 
d="M441 750c30 0 50 -20 50 -50v-496h169l-300 -298l-300 298h169v496c0 30 20 50 50 50h162zM276 159h-107l191 -189l191 189h-107v547h-168v-547z" />
    </font>
</defs>
</svg>
